q3r3
武林盟主

[2017] [其他] [爱情] [BD-720P] 以青春的名義 In.Your.Dreams.2017.720p.BluRay.x264-BiPOLAR 1.62GB

-->

帖子完整标题:以青春的名義 In.Your.Dreams.2017.720p.BluRay.x264-BiPOLAR 1.62GB



◎译  名 以青春的名义/In the Name of Youth/In Your Dreams/以青春的名义爱你
◎片  名 以青春的名義
◎年  代 2017
◎产  地 中国香港
◎类  别 爱情 / 家庭
◎语  言 粤语
◎上映日期 2017-10-31(中国香港亚洲电影节) / 2018-01-11(中国香港)
◎豆瓣评分 6.4/10 from 639 users
◎豆瓣链接 https://movie.douban.com/subject/26968026/
◎片  长 97分钟
◎导  演 谭惠贞 Wai-ching Tam
◎编  剧 谭惠贞 Wai-ching Tam
◎主  演 刘嘉玲 Carina Lau
      谢君豪 Kwan-Ho Tse
      吴肇轩 Kenneth Woo
      董玮 Wai Tung
      余香凝 Jennifer Yu
      刘天兰 Tina Liu
      刘展翘 Jackie Lau

◎标  签 刘嘉玲 | 香港 | 香港电影 | 文艺 | 青春 | 爱情 | 2017 | 谢君豪

◎简  介

  张子行(吴肇轩 饰)是一个平凡的中学生,成长在一个破碎的家庭之中。张子行的母亲很早就离开了他,留下张子行和拾荒的父亲过着相依为命的生活。这么多年来,父亲一直没有忘记母亲,借着酒精的麻痹沉浸在对过往的回忆之中,日渐堕落。
  
  一次偶然中,张子行在游泳池里救起了一个喝得烂醉险些淹死的女人,后来得知她的名字叫若美(刘嘉玲 饰)。第二天,张子行震惊的发现,若美竟然成为了自己班的代班主任。因为游泳池事件,若美和张子行走得很近,两人之间的关系日渐暧昧。张子行亦得知,若美有一个出轨的丈夫刘方信(谢君豪 饰),他伤透了若美的心。

◎获奖情况

  第37届香港电影金像奖 ?(2018)
  最佳剪接(提名) 张叔平?/?叶婉婷

Video
ID : 1
Format : AVC
Format/Info : Advanced Video Codec
Format profile : [email protected]
Format settings : CABAC / 12 Ref Frames
Format settings, CABAC : Yes
Format settings, Reference frames : 12 frames
Codec ID : V_MPEG4/ISO/AVC
Duration : 1 h 34 min
Bit rate : 1 806 kb/s
Width : 1 280 pixels
Height : 544 pixels
Display aspect ratio : 2.35:1
Frame rate mode : Constant
Frame rate : 24.000 FPS
Color space : YUV
Chroma subsampling : 4:2:0
Bit depth : 8 bits
Scan type : Progressive
Bits/(Pixel*Frame) : 0.108
Stream size : 1.19 GiB (73%)
Writing library : x264 core 163 r3059 b684ebe
Encoding settings : cabac=1 / ref=12 / deblock=1:-3:-3 / analyse=0x3:0x133 / me=umh / subme=10 / psy=1 / psy_rd=1.00:0.15 / mixed_ref=1 / me_range=24 / chroma_me=1 / trellis=2 / 8x8dct=1 / cqm=0 / deadzone=21,11 / fast_pskip=1 / chroma_qp_offset=-3 / threads=17 / lookahead_threads=2 / sliced_threads=0 / nr=0 / decimate=1 / interlaced=0 / bluray_compat=0 / constrained_intra=0 / bframes=8 / b_pyramid=2 / b_adapt=2 / b_bias=0 / direct=3 / weightb=1 / open_gop=0 / weightp=2 / keyint=250 / keyint_min=24 / scenecut=40 / intra_refresh=0 / rc_lookahead=60 / rc=crf / mbtree=1 / crf=16.0 / qcomp=0.60 / qpmin=0 / qpmax=69 / qpstep=4 / ip_ratio=1.40 / aq=3:0.70
Language : English
Default : Yes
Forced : No

Audio
ID : 2
Format : AC-3
Format/Info : Audio Coding 3
Commercial name : Dolby Digital
Format settings : Dolby Surround EX
Codec ID : A_AC3
Duration : 1 h 34 min
Bit rate mode : Constant
Bit rate : 640 kb/s
Channel(s) : 6 channels
Channel layout : L R C LFE Ls Rs
Sampling rate : 48.0 kHz
Frame rate : 31.250 FPS (1536 SPF)
Compression mode : Lossy
Stream size : 430 MiB (26%)
Title : Cantonese
Language : Chinese
Service kind : Complete Main
Default : Yes
Forced : No

Text #1
ID : 3
Format : UTF-8
Codec ID : S_TEXT/UTF8
Codec ID/Info : UTF-8 Plain Text
Duration : 1 h 27 min
Bit rate : 27 b/s
Count of elements : 772
Stream size : 17.9 KiB (0%)
Title : English
Language : English
Default : Yes
Forced : Yes

Text #2
ID : 4
Format : PGS
Muxing mode : zlib
Codec ID : S_HDMV/PGS
Codec ID/Info : Picture based subtitle format used on BDs/HD-DVDs
Duration : 1 h 27 min
Bit rate : 7 965 b/s
Count of elements : 1366
Stream size : 5.00 MiB (0%)
Title : English
Language : English
Default : No
Forced : No

Text #3
ID : 5
Format : PGS
Muxing mode : zlib
Codec ID : S_HDMV/PGS
Codec ID/Info : Picture based subtitle format used on BDs/HD-DVDs
Duration : 1 h 27 min
Bit rate : 9 210 b/s
Count of elements : 1365
Stream size : 5.78 MiB (0%)
Title : Chinese (traditional)
Language : Chinese
Default : No
Forced : No

Menu
00:00:00.000 : en:00:00:00.000
00:04:14.458 : en:00:04:14.458
00:08:28.500 : en:00:08:28.500
00:14:13.542 : en:00:14:13.542
00:18:45.417 : en:00:18:45.417
00:23:44.333 : en:00:23:44.333
00:29:13.292 : en:00:29:13.292
00:35:41.833 : en:00:35:41.833
00:39:45.750 : en:00:39:45.750
00:44:25.625 : en:00:44:25.625
00:49:26.417 : en:00:49:26.417
00:51:58.125 : en:00:51:58.125
00:55:28.917 : en:00:55:28.917
00:59:09.167 : en:00:59:09.167
01:04:40.458 : en:01:04:40.458
01:08:40.167 : en:01:08:40.167
01:13:18.208 : en:01:13:18.208
01:21:06.375 : en:01:21:06.375
01:24:26.417 : en:01:24:26.417
01:29:17.000 : en:01:29:17.000





1 个附件 售价 大小 下载 时间

In.Your.Dreams.2017.720p.BluRay.x264-BiPOLAR.torrent 0 金币 16.91K 532 次 4天前

#1楼
发帖时间:2021-06-11 11:38:35   |   回复数:0
游客组