squallzhao
武林盟主

[2016] [其他] [剧情] [BD-1080P] 监狱学警/身后仕 Apprentice.2016.1080p.BluRay.x264-USURY 8.69GB

-->

帖子完整标题:监狱学警/身后仕 Apprentice.2016.1080p.BluRay.x264-USURY 8.69GB



◎译  名 监狱学警/身后仕(港)
◎片  名 Apprentice
◎年  代 2016
◎产  地 新加坡,德国,法国,中国香港,卡塔尔
◎类  别 剧情
◎语  言 马来语,英语
◎上映日期 2016-05-16(戛纳电影节) / 2016-06-01(法国) / 2016-06-30(新加坡)
◎豆瓣评分 6.2/10 from 707 users
◎豆瓣链接 https://movie.douban.com/subject/26753490/
◎片  长 115分钟
◎导  演 巫俊锋 Boo Junfeng
◎编  剧 巫俊锋 Boo Junfeng
◎主  演 费达斯·拉赫曼 Firdaus Rahman
      万·哈纳菲苏 Wan Hanafisu
      马斯特拉·艾哈迈德 Mastura Ahmad
      布恩·平考 Boon Pin Koh
      尼克森·程 Nickson Cheng
      克里斯皮安·陈 Crispian Chan

◎标  签 新加坡 | 剧情 | 2016 | 人性 | 犯罪 | 监狱 | 戛纳 | 法国

◎简  介

  艾曼是一位28岁的狱警,被调任至国内最高级别的监狱。在监狱中,他和拉希姆建立起友谊,而后者是监狱的行刑长,且是世界上经验最丰富的行刑者之一。艾曼能否克服自己的良知和长期困扰他的过去的阻拦,成为这位行刑长的学徒呢?

◎获奖情况

  第69届戛纳电影节 ?(2016)
  一种关注单元一种关注大奖(提名) 巫俊锋
  
  第11届亚洲电影大奖 ?(2017)
  最佳新演员(提名) 费达斯·拉赫曼
  最佳剪接 利·查泰米提古?/?娜塔莉·苏

Video
ID : 1
Format : AVC
Format/Info : Advanced Video Codec
Format profile : [email protected]
Format settings : CABAC / 4 Ref Frames
Format settings, CABAC : Yes
Format settings, Reference frames : 4 frames
Codec ID : V_MPEG4/ISO/AVC
Duration : 1 h 36 min
Bit rate : 9 494 kb/s
Width : 1 920 pixels
Height : 1 038 pixels
Display aspect ratio : 1.85:1
Frame rate mode : Constant
Frame rate : 24.000 FPS
Color space : YUV
Chroma subsampling : 4:2:0
Bit depth : 8 bits
Scan type : Progressive
Bits/(Pixel*Frame) : 0.198
Stream size : 6.38 GiB (73%)
Writing library : x264 core 163 r3059 b684ebe
Encoding settings : cabac=1 / ref=4 / deblock=1:-3:-3 / analyse=0x3:0x133 / me=umh / subme=10 / psy=1 / psy_rd=1.00:0.15 / mixed_ref=1 / me_range=24 / chroma_me=1 / trellis=2 / 8x8dct=1 / cqm=0 / deadzone=21,11 / fast_pskip=1 / chroma_qp_offset=-3 / threads=18 / lookahead_threads=3 / sliced_threads=0 / nr=0 / decimate=1 / interlaced=0 / bluray_compat=0 / constrained_intra=0 / bframes=8 / b_pyramid=2 / b_adapt=2 / b_bias=0 / direct=3 / weightb=1 / open_gop=0 / weightp=2 / keyint=250 / keyint_min=24 / scenecut=40 / intra_refresh=0 / rc_lookahead=60 / rc=crf / mbtree=1 / crf=16.0 / qcomp=0.60 / qpmin=0 / qpmax=69 / qpstep=4 / ip_ratio=1.40 / aq=3:0.60
Language : English
Default : Yes
Forced : No
Color range : Limited
Matrix coefficients : BT.709

Audio #1
ID : 2
Format : MLP FBA
Format/Info : Meridian Lossless Packing FBA
Commercial name : Dolby TrueHD
Codec ID : A_TRUEHD
Duration : 1 h 36 min
Bit rate mode : Variable
Bit rate : 2 713 kb/s
Maximum bit rate : 3 654 kb/s
Channel(s) : 6 channels
Channel layout : L R C LFE Ls Rs
Sampling rate : 96.0 kHz
Frame rate : 1 200.000 FPS (80 SPF)
Compression mode : Lossless
Stream size : 1.82 GiB (21%)
Language : Malay
Default : Yes
Forced : No

Audio #2
ID : 3
Format : AC-3
Format/Info : Audio Coding 3
Commercial name : Dolby Digital
Codec ID : A_AC3
Duration : 1 h 36 min
Bit rate mode : Constant
Bit rate : 640 kb/s
Channel(s) : 6 channels
Channel layout : L R C LFE Ls Rs
Sampling rate : 48.0 kHz
Frame rate : 31.250 FPS (1536 SPF)
Compression mode : Lossy
Stream size : 440 MiB (5%)
Language : Malay
Service kind : Complete Main
Default : No
Forced : No

Text #1
ID : 4
Format : UTF-8
Codec ID : S_TEXT/UTF8
Codec ID/Info : UTF-8 Plain Text
Duration : 1 h 29 min
Bit rate : 28 b/s
Count of elements : 761
Stream size : 18.6 KiB (0%)
Title : English
Language : English
Default : Yes
Forced : Yes

Text #2
ID : 5
Format : PGS
Muxing mode : zlib
Codec ID : S_HDMV/PGS
Codec ID/Info : Picture based subtitle format used on BDs/HD-DVDs
Duration : 1 h 29 min
Bit rate : 6 506 b/s
Count of elements : 1370
Stream size : 4.14 MiB (0%)
Title : English
Language : English
Default : No
Forced : No

Text #3
ID : 6
Format : PGS
Muxing mode : zlib
Codec ID : S_HDMV/PGS
Codec ID/Info : Picture based subtitle format used on BDs/HD-DVDs
Duration : 1 h 34 min
Bit rate : 7 038 b/s
Count of elements : 1376
Stream size : 4.76 MiB (0%)
Title : Chinese (traditional)
Language : Chinese
Default : No
Forced : No

Text #4
ID : 7
Format : PGS
Muxing mode : zlib
Codec ID : S_HDMV/PGS
Codec ID/Info : Picture based subtitle format used on BDs/HD-DVDs
Duration : 1 h 34 min
Bit rate : 6 936 b/s
Count of elements : 1376
Stream size : 4.69 MiB (0%)
Title : Chinese (simplified)
Language : Chinese
Default : No
Forced : No

Menu
00:00:00.000 : en:00:00:00.000
00:09:20.458 : en:00:09:20.458
00:14:35.792 : en:00:14:35.792
00:24:27.667 : en:00:24:27.667
00:31:00.667 : en:00:31:00.667
00:40:26.458 : en:00:40:26.458
00:50:05.875 : en:00:50:05.875
00:57:25.042 : en:00:57:25.042
01:02:24.708 : en:01:02:24.708
01:11:05.917 : en:01:11:05.917
01:19:31.083 : en:01:19:31.083
01:27:52.958 : en:01:27:52.958





1 个附件 售价 大小 下载 时间

Apprentice.2016.1080p.BluRay.x264-USURY.torrent 0 金币 44.21K 420 次 4天前

#1楼
发帖时间:2021-06-11 13:31:01   |   回复数:1
ken.sting
一派掌门
感谢楼主分享精彩资源!
4天前 #2楼
游客组