squallzhao
武林盟主

[2020] [其他] [剧情] [WEB-1080P] 阿基拉的逃亡 Akillas.Escape.2020.1080p.WEBRip.DD5.1.x264-CM 4.47GB

-->

帖子完整标题:阿基拉的逃亡 Akillas.Escape.2020.1080p.WEBRip.DD5.1.x264-CM 4.47GB



◎译  名 阿基拉的逃亡
◎片  名 Akilla's Escape
◎年  代 2020
◎产  地 加拿大,美国
◎类  别 剧情
◎语  言 英语
◎上映日期 2020-09-12(多伦多电影节)
◎豆瓣评分 /10 from 0 users
◎豆瓣链接 https://movie.douban.com/subject/35192119/
◎片  长 90分钟
◎主  演 索尔·威廉姆斯 Saul Williams
      奥妮克·阿德莉 Olunike Adeliyi
      布鲁斯·拉姆塞 Bruce Ramsay
      佩德罗·米盖尔·阿尔斯 Pedro Miguel Arce
      科鲁姆·费奥瑞 Colm Feore
      戴维·启利 David Keeley
      托尼·纳波 Tony Nappo
      珍妮弗·波戴斯基 Jennifer Podemski

◎标  签 上海电影节 | 美国 | 电影 | 加拿大

◎简  介

  Akilla's Escape weaves the present and past in a crime-noir about the urban child-soldier. Set in Toronto and New York where over 450,00 Jamaicans reside, the story speaks to the historical criminalization of black boys that modern society overlooks.
  
  Akilla Brown is forty-years-old and for the first time in his life, the clandestine cannabis grow operation he runs is legit. Only one year into government approval legalization, the pendulum of hypocrisy takes a toll and Akilla decides to cash out. While making a routine delivery on a cool, summer night, destiny takes an unexpected turn when Akilla confronts a firestorm of masked youths in an armed robbery.
  
  In the aftermath of the heist, Akilla captures one of the thieves, a mute fifteen-year-old boy named Sheppard. Upon leaning the bandits are affiliated with the Garrison Army, a Jamaican crime syndicate his grandfather founded. Akilla is forced to reckon with a cycle of violence he thought he escaped.

Video
ID : 1
Format : AVC
Format/Info : Advanced Video Codec
Format profile : [email protected]
Format settings : CABAC / 2 Ref Frames
Format settings, CABAC : Yes
Format settings, Reference frames : 2 frames
Codec ID : V_MPEG4/ISO/AVC
Duration : 1 h 30 min
Bit rate : 6 694 kb/s
Width : 1 920 pixels
Height : 1 080 pixels
Display aspect ratio : 16:9
Frame rate mode : Constant
Frame rate : 23.976 (24000/1001/189150) FPS
Color space : YUV
Chroma subsampling : 4:2:0
Bit depth : 8 bits
Scan type : Progressive
Bits/(Pixel*Frame) : 0.135
Stream size : 4.22 GiB (95%)
Writing library : x264 core 155 r2901 7d0ff22
Language : English
Default : Yes
Forced : No
Color range : Limited
Color primaries : BT.709
Transfer characteristics : BT.709
Matrix coefficients : BT.709

Audio
ID : 2
Format : AC-3
Format/Info : Audio Coding 3
Commercial name : Dolby Digital
Codec ID : A_AC3
Duration : 1 h 30 min
Bit rate mode : Constant
Bit rate : 384 kb/s
Channel(s) : 6 channels
Channel layout : L R C LFE Ls Rs
Sampling rate : 48.0 kHz
Frame rate : 31.250 FPS (1536 SPF)
Compression mode : Lossy
Stream size : 248 MiB (5%)
Language : English
Service kind : Complete Main
Default : Yes
Forced : No

Text
ID : 3
Format : UTF-8
Codec ID : S_TEXT/UTF8
Codec ID/Info : UTF-8 Plain Text
Duration : 1 h 18 min
Bit rate : 37 b/s
Count of elements : 766
Stream size : 21.3 KiB (0%)
Language : English
Default : Yes
Forced : No





1 个附件 售价 大小 下载 时间

Akillas.Escape.2020.1080p.WEBRip.DD5.1.x264-CM.torrent 0 金币 45.27K 378 次 4天前

#1楼
发帖时间:2021-06-11 14:02:42   |   回复数:1
ken.sting
一派掌门
感谢楼主分享精彩资源!
4天前 #2楼
游客组