topgood
武林盟主

[2021] [欧美] [剧情] [BD-1080P] 红石杀手 Red.Stone.2021.1080p.BluRay.x264.DTS-MT 16.53GB

-->

帖子完整标题:红石杀手 Red.Stone.2021.1080p.BluRay.x264.DTS-MT 16.53GB



◎译  名 红石杀手
◎片  名 Red Stone
◎年  代 2021
◎产  地 美国
◎类  别 剧情 / 动作 / 悬疑 / 惊悚
◎语  言 英语
◎上映日期 2021-12-03(美国网络)
◎IMDb链接 https://www.imdb.com/title/tt11944928/
◎豆瓣链接 https://movie.douban.com/subject/35683917/
◎演  员 尼尔·麦克唐纳 Neal McDonough (id:1031878)
      迈克尔·库立兹 Michael Cudlitz (id:1013916)
      多米尼克·斯科特·凯伊 Dominic Scott Kay (id:1045080)
      麦克·多普德 Mike Dopud (id:1088714)
      亚历山德里娅·德伯里 Alexandria Deberry (id:1198786)
      Grace Patterson Grace Patterson (id:1463604)
      杰森·道格拉斯 Jason Douglas (id:1404917)
      比利·布莱尔 Billy Blair (id:1274695)
      CG刘易斯 CG Lewis (id:1443049)
      Darla Delgado Darla Delgado (id:1205328)
      卢克·巴内特 Luke Barnett (id:1212007)
      罗伯特约翰逊 Robert Johnson (id:1104046)

◎简  介
  一名危险的杀手(尼尔·麦克唐纳饰)的任务是追捕一名少年,他目睹了自己的哥哥被无情的南方罪魁祸首(迈克尔·库德利兹饰)谋杀。雇佣的枪必须在敌手或联邦调查局先找到那个男孩之前找到他。随着时间的流逝,杀手开始质疑他的致命方式,必须选择他属于哪一方。

Video
ID : 1
Format : AVC
Format/Info : Advanced Video Codec
Format profile : [email protected]
Format settings : CABAC / 5 Ref Frames
Format settings, CABAC : Yes
Format settings, Reference frames : 5 frames
Codec ID : V_MPEG4/ISO/AVC
Duration : 1 h 36 min
Bit rate : 22.9 Mb/s
Width : 1 920 pixels
Height : 780 pixels
Display aspect ratio : 2.462
Frame rate mode : Constant
Frame rate : 23.976 (24000/1001/189150) FPS
Color space : YUV
Chroma subsampling : 4:2:0
Bit depth : 8 bits
Scan type : Progressive
Bits/(Pixel*Frame) : 0.639
Stream size : 15.5 GiB (94%)
Writing library : x264 core 157 r2938 2b00a84 [email protected] Mod
Encoding settings : cabac=1 / ref=5 / deblock=1:-3:-3 / analyse=0x3:0x133 / me=umh / subme=10 / psy=1 / psy_rd=1.05:0.00 / mixed_ref=1 / me_range=32 / chroma_me=1 / trellis=2 / 8x8dct=1 / cqm=0 / deadzone=21,11 / fast_pskip=0 / chroma_qp_offset=-2 / threads=12 / lookahead_threads=2 / sliced_threads=0 / nr=0 / decimate=0 / interlaced=0 / bluray_compat=0 / constrained_intra=0 / bframes=8 / b_pyramid=2 / b_adapt=2 / b_bias=0 / direct=3 / weightb=1 / open_gop=0 / weightp=2 / keyint=250 / keyint_min=24 / scenecut=40 / intra_refresh=0 / rc_lookahead=250 / rc=crf / mbtree=0 / crf=16.8 / qcomp=0.60 / qpmin=0 / qpmax=69 / qpstep=4 / vbv_maxrate=62500 / vbv_bufsize=78125 / crf_max=0.0 / nal_hrd=none / filler=0 / ip_ratio=1.30 / pb_ratio=1.20 / aq=3:0.80
Language : English
Default : Yes
Forced : No
Color range : Limited
Color primaries : BT.709
Matrix coefficients : BT.709

Audio
ID : 2
Format : DTS
Format/Info : Digital Theater Systems
Codec ID : A_DTS
Duration : 1 h 36 min
Bit rate mode : Constant
Bit rate : 1 509 kb/s
Channel(s) : 6 channels
Channel layout : C L R Ls Rs LFE
Sampling rate : 48.0 kHz
Frame rate : 93.750 FPS (512 SPF)
Bit depth : 24 bits
Compression mode : Lossy
Stream size : 1.02 GiB (6%)
Language : English
Default : Yes
Forced : No

Text #1
ID : 3
Format : UTF-8
Codec ID : S_TEXT/UTF8
Codec ID/Info : UTF-8 Plain Text
Duration : 1 h 28 min
Bit rate : 37 b/s
Count of elements : 871
Stream size : 24.6 KiB (0%)
Language : English
Default : Yes
Forced : No

Text #2
ID : 4
Format : UTF-8
Codec ID : S_TEXT/UTF8
Codec ID/Info : UTF-8 Plain Text
Duration : 1 h 35 min
Bit rate : 44 b/s
Count of elements : 1208
Stream size : 31.1 KiB (0%)
Title : SDH
Language : English
Default : No
Forced : No

Menu
00:00:00.000 : en:Chapter 01
00:08:58.455 : en:Chapter 02
00:19:16.238 : en:Chapter 03
00:30:29.870 : en:Chapter 04
00:40:59.207 : en:Chapter 05
00:50:08.380 : en:Chapter 06
01:01:34.441 : en:Chapter 07
01:10:13.292 : en:Chapter 08
01:20:04.383 : en:Chapter 09
01:32:37.385 : en:Chapter 10





1 个附件 售价 大小 下载 时间

Red.Stone.2021.1080p.BluRay.x264.DTS-MT.torrent 0 金币 21.28K 476 次 4月前

#1楼
发帖时间:2022-01-18 17:24:25   |   回复数:0
游客组