travismk
一代宗师

[更 早] [欧美] [其它] [BD-1080P] 魔域惊魂 The.Spiral.Road.1962.1080p.BluRay.x264-OLDTiME 11.91GB

-->

帖子完整标题:魔域惊魂 The.Spiral.Road.1962.1080p.BluRay.x264-OLDTiME 11.91GB



◎标  题 魔域惊魂
◎译  名 回旋路
◎片  名 The Spiral Road
◎年  代 1962
◎产  地 美国
◎类  别 冒险
◎语  言 英语
◎上映日期 1962
◎IMDb评分 6.1/10 (535人评价)
◎IMDb链接 https://www.imdb.com/title/tt0056516/
◎豆瓣链接 https://movie.douban.com/subject/5058972/
◎片  长 145 分钟
◎导  演 罗伯特·马利根 Robert Mulligan
◎编  剧 约翰·李·马辛 John Lee Mahin
      尼尔·佩特森 Neil Paterson
      扬·德哈尔托赫 Jan de Hartog
◎演  员 罗克·赫德森 Rock Hudson
      伯尔·艾弗斯 Burl Ives
      吉娜·罗兰兹 Gena Rowlands
      雷吉·纳尔德 Reggie Nalder
      卡尔·斯温森 Karl Swenson
      Tom Steele Tom Steele
      埃特加斯坦利 Edgar Stehli
      Glen Walters Glen Walters
      帕利·贝尔 Parley Baer
      David Chow David Chow
      弗雷德·韦恩 Fredd Wayne
      但茱迪 Judy Dan
      大卫·夏普 David Sharpe
      内娃·帕特森 Neva Patterson
      Barbara Morrison Barbara Morrison
      菲利普·雅培 Philip Abbott
      Martin Brandt Martin Brandt
      Leslie Bradley Leslie Bradley
      大卫·弗兰克海姆 David Frankham
      拉里·盖茨 Larry Gates
      格佛雷·肯 Geoffrey Keen
      Will Kuluva Will Kuluva
      Paul Keast Paul Keast
      大卫·刘易斯 David Lewis
      里昂·朗塔克 Leon Lontoc
      罗伯特·F·西蒙 Robert F. Simon
      Robert Arthur Robert Arthur
      杰瑞·高德史密斯 Jerry Goldsmith
      拉塞尔·哈伦 Russell Harlan
      Russell F. Schoengarth Russell F. Schoengarth
      奥利弗·埃默特 Oliver Emert
      亚历山大·高利思 Alexander Golitzen
      亨利·巴姆斯泰德 Henry Bumstead
      Rosemary Odell Rosemary Odell
      拉里·热尔曼 Larry Germain
      百德·沃斯塔梅尔 Bud Westmore
      Joseph E. Kenney Joseph E. Kenney

Video
ID : 1
Format : AVC
Format/Info : Advanced Video Codec
Format profile : [email protected]
Format settings : CABAC / 4 Ref Frames
Format settings, CABAC : Yes
Format settings, Reference frames : 4 frames
Codec ID : V_MPEG4/ISO/AVC
Duration : 2 h 19 min
Bit rate : 12.0 Mb/s
Width : 1 920 pixels
Height : 960 pixels
Display aspect ratio : 2.000
Frame rate mode : Constant
Frame rate : 23.976 (24000/1001/189150) FPS
Color space : YUV
Chroma subsampling : 4:2:0
Bit depth : 8 bits
Scan type : Progressive
Bits/(Pixel*Frame) : 0.271
Stream size : 11.7 GiB (98%)
Writing library : x264 core 164 r3094 bfc87b7
Encoding settings : cabac=1 / ref=4 / deblock=1:-3:-3 / analyse=0x3:0x133 / me=umh / subme=9 / psy=1 / psy_rd=1.00:0.00 / mixed_ref=1 / me_range=16 / chroma_me=1 / trellis=2 / 8x8dct=1 / cqm=0 / deadzone=21,11 / fast_pskip=0 / chroma_qp_offset=-2 / threads=30 / lookahead_threads=2 / sliced_threads=0 / nr=0 / decimate=1 / interlaced=0 / bluray_compat=0 / constrained_intra=0 / bframes=3 / b_pyramid=2 / b_adapt=2 / b_bias=0 / direct=3 / weightb=1 / open_gop=0 / weightp=2 / keyint=250 / keyint_min=23 / scenecut=40 / intra_refresh=0 / rc_lookahead=60 / rc=crf / mbtree=1 / crf=20.0 / qcomp=0.60 / qpmin=0 / qpmax=69 / qpstep=4 / ip_ratio=1.40 / aq=1:1.00
Language : English
Default : Yes
Forced : No

Audio
ID : 2
Format : FLAC
Format/Info : Free Lossless Audio Codec
Codec ID : A_FLAC
Duration : 2 h 19 min
Bit rate mode : Variable
Bit rate : 230 kb/s
Channel(s) : 2 channels
Channel layout : L R
Sampling rate : 48.0 kHz
Frame rate : 11.719 FPS (4096 SPF)
Bit depth : 16 bits
Compression mode : Lossless
Stream size : 229 MiB (2%)
Writing library : libFLAC 1.3.2 (UTC 2017-01-01)
Language : English
Default : Yes
Forced : No

Text #1
ID : 3
Format : PGS
Muxing mode : zlib
Codec ID : S_HDMV/PGS
Codec ID/Info : Picture based subtitle format used on BDs/HD-DVDs
Duration : 2 h 18 min
Bit rate : 17.5 kb/s
Count of elements : 2955
Stream size : 17.4 MiB (0%)
Language : English
Default : No
Forced : No

Text #2
ID : 4
Format : PGS
Muxing mode : zlib
Codec ID : S_HDMV/PGS
Codec ID/Info : Picture based subtitle format used on BDs/HD-DVDs
Duration : 2 h 18 min
Bit rate : 20.3 kb/s
Count of elements : 2955
Stream size : 20.2 MiB (0%)
Language : German
Default : No
Forced : No

Text #3
ID : 5
Format : PGS
Muxing mode : zlib
Codec ID : S_HDMV/PGS
Codec ID/Info : Picture based subtitle format used on BDs/HD-DVDs
Duration : 1 h 37 min
Bit rate : 4 529 b/s
Count of elements : 447
Stream size : 3.15 MiB (0%)
Language : German
Default : No
Forced : No

Menu
00:00:00.000 : en:Chapter 01
00:02:04.541 : en:Chapter 02
00:10:35.718 : en:Chapter 03
00:18:53.549 : en:Chapter 04
00:34:13.885 : en:Chapter 05
00:50:25.439 : en:Chapter 06
01:05:48.445 : en:Chapter 07
01:13:01.460 : en:Chapter 08
01:24:14.299 : en:Chapter 09
01:44:34.518 : en:Chapter 10
01:53:39.229 : en:Chapter 11





1 个附件 售价 大小 下载 时间

The.Spiral.Road.1962.1080p.BluRay.x264-OLDTiME.torrent 0 金币 15.63K 210 次 2天前

#1楼
发帖时间:2022-06-23 21:53:47   |   回复数:0
游客组