fg603603
一代宗师

[2021] [欧美] [喜剧] [BD-720P] 致胜女王 Queenpins.2021.720p.BluRay.x264-JustWatch 3.99GB

-->

帖子完整标题:致胜女王 Queenpins.2021.720p.BluRay.x264-JustWatch 3.99GB



◎标  题 致胜女王
◎译  名 爽翻姐妹(台) / 劫券同盟(港)
◎片  名 Queenpins
◎年  代 2021
◎产  地 美国
◎类  别 喜剧
◎语  言 英语
◎上映日期 2021-09-10(美国)
◎IMDb评分 6.3/10 (6583人评价)
◎IMDb链接 https://www.imdb.com/title/tt9054192/
◎豆瓣评分 6.6/10 (425人评价)
◎豆瓣链接 https://movie.douban.com/subject/35236759/
◎导  演 吉塔·普拉皮里 Gita Pullapilly
      艾隆·高迪 Aron Gaudet
◎编  剧 吉塔·普拉皮里 Gita Pullapilly
      艾隆·高迪 Aron Gaudet
◎演  员 克里斯汀·贝尔 Kristen Bell
      柯尔比·豪威尔-巴普蒂斯特 Kirby Howell-Baptiste
      文斯·沃恩 Vince Vaughn
      保罗·沃尔特·豪泽 Paul Walter Hauser
      斯蒂芬·鲁特 Stephen Root
      乔尔·麦克哈尔 Joel McHale
      加勒特·沃灵 Garrett Wareing
      尼克·卡萨维蒂 Nick Cassavetes
      安妮·玛莫罗 Annie Mumolo
      杰克·麦克布瑞尔 Jack McBrayer
      马克·埃文·杰克逊 Marc Evan Jackson
      保罗·鲁斯特 Paul Rust
      碧碧·雷克萨 Bebe Rexha
      爱德华多·弗兰科 Eduardo Franco
      莉迪亚·波尔图 Lidia Porto
      戴奥·奥柯奈伊 Dayo Okeniyi
      詹姆斯·摩西·布莱克 James Moses Black
      迈克尔·马西尼 Michael Masini
      Philip Adkins
      丹·萨霍夫 Dan Sachoff
      杰森·西姆斯-普鲁伊特 Jason Sims-Prewitt
      伦纳德·罗宾逊 Leonard Robinson
      迈克尔·罗素 Michael Russell
      Albert Malafronte
      本·锡德尔 Ben Sidell

◎标  签 喜剧 / 真实事件改编 / 美国 / 2021 / 轻松 / 美国电影 / 电影 / 剧情

◎简  介
  本片根据史上最大的优惠券造假骗局改编,讲述一名住在郊区的家庭主妇(贝尔饰)受够了被丈夫和社会忽视的生活。于是她试图通过成立一个非法优惠券俱乐部来重新掌控自己的生活,并最终和她的剪券同伴一起从食品公司骗取了数百万美元。雷克萨将饰演一位名叫Tempe Tina的电脑黑客。

Video
ID : 1
Format : AVC
Format/Info : Advanced Video Codec
Format profile : [email protected]
Format settings : CABAC / 8 Ref Frames
Format settings, CABAC : Yes
Format settings, Reference frames : 8 frames
Codec ID : V_MPEG4/ISO/AVC
Duration : 1 h 50 min
Bit rate : 4 488 kb/s
Width : 1 280 pixels
Height : 690 pixels
Display aspect ratio : 1.85:1
Frame rate mode : Constant
Frame rate : 24.000 FPS
Color space : YUV
Chroma subsampling : 4:2:0
Bit depth : 8 bits
Scan type : Progressive
Bits/(Pixel*Frame) : 0.212
Stream size : 3.48 GiB (87%)
Writing library : x264 core 164 r3094 bfc87b7
Encoding settings : cabac=1 / ref=8 / deblock=1:-3:-3 / analyse=0x3:0x133 / me=umh / subme=9 / psy=1 / psy_rd=1.00:0.00 / mixed_ref=1 / me_range=16 / chroma_me=1 / trellis=2 / 8x8dct=1 / cqm=0 / deadzone=21,11 / fast_pskip=0 / chroma_qp_offset=-2 / threads=22 / lookahead_threads=1 / sliced_threads=0 / nr=0 / decimate=1 / interlaced=0 / bluray_compat=0 / constrained_intra=0 / bframes=3 / b_pyramid=2 / b_adapt=2 / b_bias=0 / direct=3 / weightb=1 / open_gop=0 / weightp=2 / keyint=250 / keyint_min=24 / scenecut=40 / intra_refresh=0 / rc_lookahead=60 / rc=crf / mbtree=1 / crf=17.0 / qcomp=0.60 / qpmin=0 / qpmax=69 / qpstep=4 / ip_ratio=1.40 / aq=1:1.00
Language : English
Default : Yes
Forced : No

Audio
ID : 2
Format : AC-3
Format/Info : Audio Coding 3
Commercial name : Dolby Digital
Codec ID : A_AC3
Duration : 1 h 50 min
Bit rate mode : Constant
Bit rate : 640 kb/s
Channel(s) : 6 channels
Channel layout : L R C LFE Ls Rs
Sampling rate : 48.0 kHz
Frame rate : 31.250 FPS (1536 SPF)
Compression mode : Lossy
Stream size : 508 MiB (12%)
Language : English
Service kind : Complete Main
Default : Yes
Forced : No

Text #1
ID : 3
Format : PGS
Muxing mode : zlib
Codec ID : S_HDMV/PGS
Codec ID/Info : Picture based subtitle format used on BDs/HD-DVDs
Duration : 1 h 43 min
Bit rate : 47.4 kb/s
Count of elements : 3114
Stream size : 34.9 MiB (1%)
Language : German
Default : No
Forced : No

Text #2
ID : 4
Format : PGS
Muxing mode : zlib
Codec ID : S_HDMV/PGS
Codec ID/Info : Picture based subtitle format used on BDs/HD-DVDs
Duration : 1 h 42 min
Bit rate : 821 b/s
Count of elements : 58
Stream size : 617 KiB (0%)
Language : German
Default : No
Forced : No

Menu
00:00:00.000 : en:Chapter 01
00:05:04.292 : en:Chapter 02
00:13:07.292 : en:Chapter 03
00:20:54.083 : en:Chapter 04
00:28:35.583 : en:Chapter 05
00:36:56.208 : en:Chapter 06
00:46:41.250 : en:Chapter 07
00:54:33.792 : en:Chapter 08
01:01:02.042 : en:Chapter 09
01:08:39.958 : en:Chapter 10
01:14:13.833 : en:Chapter 11
01:19:16.208 : en:Chapter 12
01:23:41.833 : en:Chapter 13
01:29:26.500 : en:Chapter 14
01:36:13.333 : en:Chapter 15
01:43:58.417 : en:Chapter 16





1 个附件 售价 大小 下载 时间

Queenpins.2021.720p.BluRay.x264-JustWatch.torrent 0 金币 20.69K 217 次 2天前

#1楼
发帖时间:2022-06-23 22:44:21   |   回复数:0
游客组