travismk
一代宗师

[2022] [其它] [喜剧] [BD-1080P] 刺猬索尼克2 Sonic.the.Hedgehog.2.2022.1080p.BluRay.x264-SCARE 14.62GB

-->

帖子完整标题:刺猬索尼克2 Sonic.the.Hedgehog.2.2022.1080p.BluRay.x264-SCARE 14.62GB



◎标  题 刺猬索尼克2
◎译  名 超音鼠大电影2(港) / 音速小子2(台)
◎片  名 Sonic the Hedgehog 2
◎年  代 2022
◎产  地 美国 / 日本
◎类  别 喜剧 / 动作 / 科幻 / 动画 / 冒险
◎语  言 英语
◎上映日期 2022(中国大陆) / 2022-04-08(美国)
◎IMDb评分 6.7/10 (27693人评价)
◎IMDb链接 https://www.imdb.com/title/tt12412888/
◎豆瓣链接 https://movie.douban.com/subject/35083986/
◎片  长 122分钟
◎导  演 杰夫·福勒 Jeff Fowler
◎编  剧 帕特里克·凯西 Patrick Casey
      乔什·米勒 Josh Miller
      约翰·惠廷顿 John Whittington
◎演  员 詹姆斯·麦斯登 James Marsden
      金·凯瑞 Jim Carrey
      本·施瓦茨 Ben Schwartz
      提卡·森普特 Tika Sumpter
      伊德里斯·艾尔巴 Idris Elba
      娜塔莎·罗斯韦尔 Natasha Rothwell
      亚当·佩里 Adam Pally
      谢默·摩尔 Shemar Moore
      李·马贾道布 Lee Majdoub
      科琳·欧肖内希 Colleen O'Shaughnessey
      梅洛德·诺西普·尼曼 Melody Nosipho Niemann
      汤姆·巴特勒 Tom Butler
      布拉德·卡利利莫库 Brad Kalilimoku
      杰夫·桑卡 Jeff Sanca
      伊丽莎白·鲍恩 Elizabeth Bowen
      多恩·列夫 Don Lew
      里斯·威廉姆斯 Rhys Williams
      西蒙·钱 Simon Chin
      弗雷泽·科比特 Fraser Corbett
      奎因·厄利 Quinn Early
      马库斯·奥雷里奥 Marcus Aurelio
      尼托·拉里奥萨 Nito Larioza
      迈克·鲁菲诺 Mike Rufino
      詹姆斯·兰索恩 James Ransone
      琼基·XL Junkie XL

◎简  介
  索尼克在绿丘镇安顿下来之后,就急着要证明自己有能力成为一名真正的英雄。当蛋头博士带着全新的搭档纳克鲁斯,又回来寻找一块力量强大足以毁灭人类文明的翡翠的时候,他就面对了另一个严峻的考验。这次索尼克和他自己的跟班塔尔斯携手合作,一起踏上一场环游世界的冒险旅程,希望能在那块翡翠落入坏人手中之前先找到它。

Video
ID : 1
Format : AVC
Format/Info : Advanced Video Codec
Format profile : [email protected]
Format settings : CABAC / 5 Ref Frames
Format settings, CABAC : Yes
Format settings, Reference frames : 5 frames
Codec ID : V_MPEG4/ISO/AVC
Duration : 2 h 2 min
Bit rate : 11.0 Mb/s
Width : 1 920 pixels
Height : 804 pixels
Display aspect ratio : 2.40:1
Frame rate mode : Constant
Frame rate : 23.976 (24000/1001/189150) FPS
Color space : YUV
Chroma subsampling : 4:2:0
Bit depth : 8 bits
Scan type : Progressive
Bits/(Pixel*Frame) : 0.297
Stream size : 9.40 GiB (64%)
Writing library : x264 core 164 r3095 baee400
Encoding settings : cabac=1 / ref=5 / deblock=1:-3:-3 / analyse=0x3:0x133 / me=umh / subme=10 / psy=1 / psy_rd=1.20:0.00 / mixed_ref=1 / me_range=24 / chroma_me=1 / trellis=2 / 8x8dct=1 / cqm=0 / deadzone=21,11 / fast_pskip=0 / chroma_qp_offset=-2 / threads=24 / lookahead_threads=4 / sliced_threads=0 / nr=0 / decimate=0 / interlaced=0 / bluray_compat=0 / constrained_intra=0 / bframes=8 / b_pyramid=2 / b_adapt=2 / b_bias=0 / direct=3 / weightb=1 / open_gop=0 / weightp=2 / keyint=250 / keyint_min=23 / scenecut=40 / intra_refresh=0 / rc_lookahead=60 / rc=crf / mbtree=1 / crf=16.0 / qcomp=0.60 / qpmin=0 / qpmax=69 / qpstep=4 / ip_ratio=1.40 / aq=3:0.90
Default : Yes
Forced : No
Color range : Limited
Matrix coefficients : BT.709

Audio #1
ID : 2
Format : MLP FBA 16-ch
Format/Info : Meridian Lossless Packing FBA with 16-channel presentation
Commercial name : Dolby TrueHD with Dolby Atmos
Codec ID : A_TRUEHD
Duration : 2 h 2 min
Bit rate mode : Variable
Bit rate : 4 873 kb/s
Maximum bit rate : 8 142 kb/s
Channel(s) : 8 channels
Channel layout : L R C LFE Ls Rs Lb Rb
Sampling rate : 48.0 kHz
Frame rate : 1 200.000 FPS (40 SPF)
Compression mode : Lossless
Stream size : 4.16 GiB (28%)
Language : English
Default : Yes
Forced : No
Number of dynamic objects : 11
Bed channel count : 1 channel
Bed channel configuration : LFE

Audio #2
ID : 3
Format : AC-3
Format/Info : Audio Coding 3
Commercial name : Dolby Digital
Format settings : Dolby Surround EX
Codec ID : A_AC3
Duration : 2 h 2 min
Bit rate mode : Constant
Bit rate : 640 kb/s
Channel(s) : 6 channels
Channel layout : L R C LFE Ls Rs
Sampling rate : 48.0 kHz
Frame rate : 31.250 FPS (1536 SPF)
Compression mode : Lossy
Stream size : 560 MiB (4%)
Language : English
Service kind : Complete Main
Default : No
Forced : No

Audio #3
ID : 4
Format : AAC LC
Format/Info : Advanced Audio Codec Low Complexity
Codec ID : A_AAC-2
Duration : 2 h 2 min
Bit rate : 124 kb/s
Channel(s) : 2 channels
Channel layout : L R
Sampling rate : 48.0 kHz
Frame rate : 46.875 FPS (1024 SPF)
Compression mode : Lossy
Delay relative to video : 20 ms
Stream size : 108 MiB (1%)
Title : Commentary
Language : English
Default : No
Forced : No

Text #1
ID : 5
Format : UTF-8
Codec ID : S_TEXT/UTF8
Codec ID/Info : UTF-8 Plain Text
Duration : 42 min 25 s
Bit rate : 0 b/s
Count of elements : 7
Stream size : 191 Bytes (0%)
Title : English (Forced)
Language : English
Default : Yes
Forced : Yes

Text #2
ID : 6
Format : PGS
Muxing mode : zlib
Codec ID : S_HDMV/PGS
Codec ID/Info : Picture based subtitle format used on BDs/HD-DVDs
Duration : 1 h 52 min
Bit rate : 48.0 kb/s
Count of elements : 3998
Stream size : 38.4 MiB (0%)
Title : SDH
Language : English
Default : No
Forced : No

Text #3
ID : 7
Format : PGS
Muxing mode : zlib
Codec ID : S_HDMV/PGS
Codec ID/Info : Picture based subtitle format used on BDs/HD-DVDs
Duration : 1 h 52 min
Bit rate : 37.3 kb/s
Count of elements : 2736
Stream size : 29.9 MiB (0%)
Language : English
Default : No
Forced : No

Text #4
ID : 8
Format : PGS
Muxing mode : zlib
Codec ID : S_HDMV/PGS
Codec ID/Info : Picture based subtitle format used on BDs/HD-DVDs
Duration : 2 h 2 min
Bit rate : 71.5 kb/s
Count of elements : 4906
Stream size : 62.5 MiB (0%)
Title : Commentary
Language : French
Default : No
Forced : No

Text #5
ID : 9
Format : PGS
Muxing mode : zlib
Codec ID : S_HDMV/PGS
Codec ID/Info : Picture based subtitle format used on BDs/HD-DVDs
Duration : 2 h 2 min
Bit rate : 65.7 kb/s
Count of elements : 4423
Stream size : 57.4 MiB (0%)
Title : Commentary
Language : Spanish
Default : No
Forced : No

Text #6
ID : 10
Format : PGS
Muxing mode : zlib
Codec ID : S_HDMV/PGS
Codec ID/Info : Picture based subtitle format used on BDs/HD-DVDs
Duration : 2 h 1 min
Bit rate : 34.1 kb/s
Count of elements : 2776
Stream size : 29.6 MiB (0%)
Language : French
Default : No
Forced : No

Text #7
ID : 11
Format : PGS
Muxing mode : zlib
Codec ID : S_HDMV/PGS
Codec ID/Info : Picture based subtitle format used on BDs/HD-DVDs
Duration : 2 h 1 min
Bit rate : 32.1 kb/s
Count of elements : 2638
Stream size : 27.9 MiB (0%)
Language : Spanish
Default : No
Forced : No

Text #8
ID : 12
Format : PGS
Muxing mode : zlib
Codec ID : S_HDMV/PGS
Codec ID/Info : Picture based subtitle format used on BDs/HD-DVDs
Duration : 2 h 2 min
Bit rate : 84.5 kb/s
Count of elements : 5007
Stream size : 73.8 MiB (0%)
Title : Commentary
Language : English
Default : No
Forced : No

Text #9
ID : 13
Format : PGS
Muxing mode : zlib
Codec ID : S_HDMV/PGS
Codec ID/Info : Picture based subtitle format used on BDs/HD-DVDs
Duration : 2 h 2 min
Bit rate : 57.1 kb/s
Count of elements : 4955
Stream size : 49.9 MiB (0%)
Title : Commentary
Language : French
Default : No
Forced : No

Text #10
ID : 14
Format : PGS
Muxing mode : zlib
Codec ID : S_HDMV/PGS
Codec ID/Info : Picture based subtitle format used on BDs/HD-DVDs
Duration : 2 h 2 min
Bit rate : 66.8 kb/s
Count of elements : 4580
Stream size : 58.4 MiB (0%)
Title : Commentary
Language : Portuguese
Default : No
Forced : No

Text #11
ID : 15
Format : PGS
Muxing mode : zlib
Codec ID : S_HDMV/PGS
Codec ID/Info : Picture based subtitle format used on BDs/HD-DVDs
Duration : 2 h 2 min
Bit rate : 56.3 kb/s
Count of elements : 4567
Stream size : 49.2 MiB (0%)
Title : Commentary
Language : Spanish
Default : No
Forced : No

Text #12
ID : 16
Format : PGS
Muxing mode : zlib
Codec ID : S_HDMV/PGS
Codec ID/Info : Picture based subtitle format used on BDs/HD-DVDs
Duration : 2 h 1 min
Bit rate : 29.4 kb/s
Count of elements : 2564
Stream size : 25.5 MiB (0%)
Language : Danish
Default : No
Forced : No

Text #13
ID : 17
Format : PGS
Muxing mode : zlib
Codec ID : S_HDMV/PGS
Codec ID/Info : Picture based subtitle format used on BDs/HD-DVDs
Duration : 2 h 1 min
Bit rate : 30.3 kb/s
Count of elements : 2660
Stream size : 26.3 MiB (0%)
Language : Dutch
Default : No
Forced : No

Text #14
ID : 18
Format : PGS
Muxing mode : zlib
Codec ID : S_HDMV/PGS
Codec ID/Info : Picture based subtitle format used on BDs/HD-DVDs
Duration : 2 h 1 min
Bit rate : 27.7 kb/s
Count of elements : 2698
Stream size : 24.1 MiB (0%)
Language : Finnish
Default : No
Forced : No

Text #15
ID : 19
Format : PGS
Muxing mode : zlib
Codec ID : S_HDMV/PGS
Codec ID/Info : Picture based subtitle format used on BDs/HD-DVDs
Duration : 2 h 1 min
Bit rate : 30.3 kb/s
Count of elements : 2630
Stream size : 26.3 MiB (0%)
Language : French
Default : No
Forced : No

Text #16
ID : 20
Format : PGS
Muxing mode : zlib
Codec ID : S_HDMV/PGS
Codec ID/Info : Picture based subtitle format used on BDs/HD-DVDs
Duration : 2 h 1 min
Bit rate : 29.7 kb/s
Count of elements : 2706
Stream size : 25.8 MiB (0%)
Language : Norwegian
Default : No
Forced : No

Text #17
ID : 21
Format : PGS
Muxing mode : zlib
Codec ID : S_HDMV/PGS
Codec ID/Info : Picture based subtitle format used on BDs/HD-DVDs
Duration : 2 h 1 min
Bit rate : 32.9 kb/s
Count of elements : 2760
Stream size : 28.5 MiB (0%)
Language : Portuguese
Default : No
Forced : No

Text #18
ID : 22
Format : PGS
Muxing mode : zlib
Codec ID : S_HDMV/PGS
Codec ID/Info : Picture based subtitle format used on BDs/HD-DVDs
Duration : 2 h 1 min
Bit rate : 34.5 kb/s
Count of elements : 2756
Stream size : 29.9 MiB (0%)
Language : Spanish
Default : No
Forced : No

Text #19
ID : 23
Format : PGS
Muxing mode : zlib
Codec ID : S_HDMV/PGS
Codec ID/Info : Picture based subtitle format used on BDs/HD-DVDs
Duration : 2 h 1 min
Bit rate : 30.2 kb/s
Count of elements : 2542
Stream size : 26.3 MiB (0%)
Language : Swedish
Default : No
Forced : No

Menu
00:00:00.000 : Chapter 01
00:05:54.354 : Chapter 02
00:09:59.516 : Chapter 03
00:16:32.950 : Chapter 04
00:20:58.924 : Chapter 05
00:28:05.475 : Chapter 06
00:34:19.933 : Chapter 07
00:39:09.889 : Chapter 08
00:48:24.902 : Chapter 09
00:58:32.509 : Chapter 10
01:04:57.602 : Chapter 11
01:11:02.049 : Chapter 12
01:16:09.440 : Chapter 13
01:26:59.923 : Chapter 14
01:32:31.838 : Chapter 15
01:40:46.040 : Chapter 16
01:48:21.495 : Chapter 17
01:53:56.079 : Chapter 18
02:02:18.748 : Chapter 19





1 个附件 售价 大小 下载 时间

Sonic.the.Hedgehog.2.2022.1080p.BluRay.x264-SCARE.torrent 0 金币 19.02K 462 次 3天前

#1楼
发帖时间:2022-08-06 10:58:55   |   回复数:0
游客组