travismk
一代宗师

[更 早] [欧美] [剧情] [BD-4K] 48小时 48.Hrs.1982.2160p.WEB-DL.DD5.1.DV.MP4.x265-DVSUX 17.09GB

-->

帖子完整标题:48小时 48.Hrs.1982.2160p.WEB-DL.DD5.1.DV.MP4.x265-DVSUX 17.09GB



◎标  题 48小时
◎译  名 特赦48小时 / 四十八小时
◎片  名 48 Hrs.
◎年  代 1982
◎产  地 美国
◎类  别 剧情 / 喜剧 / 动作 / 惊悚 / 犯罪
◎语  言 英语
◎上映日期 1982-12-08(美国)
◎IMDb评分 6.9/10 (74979人评价)
◎IMDb链接 https://www.imdb.com/title/tt0083511/
◎豆瓣评分 6.5/10 (387人评价)
◎豆瓣链接 https://movie.douban.com/subject/1301780/
◎片  长 96 分钟
◎导  演 沃尔特·希尔 Walter Hill
◎编  剧 罗杰·斯波蒂斯伍德 Roger Spottiswoode
      沃尔特·希尔 Walter Hill
      拉里·格罗斯 Larry Gross
      斯蒂芬·E.德·索萨 Steven E. de Souza
◎演  员 尼克·诺特 Nick Nolte
      艾迪·墨菲 Eddie Murphy
      安妮特·奥图 Annette O'Toole
      弗兰克·麦克雷 Frank McRae
      詹姆斯·瑞马尔 James Remar
      大卫·帕特里克·凯利 David Patrick Kelly
      索尼·兰哈姆 Sonny Landham
      布里翁·詹姆斯 Brion James
      Kerry Sherman Kerry Sherman
      乔纳森·班克斯 Jonathan Banks
      詹姆斯·基恩 James Keane
      Margot Rose Margot Rose
      丹尼斯·克罗斯比 Denise Crosby
      Olivia Brown Olivia Brown
      Todd Allen Todd Allen
      Bill Dearth Bill Dearth
      内德·道德 Ned Dowd
      吉姆·海尼 Jim Haynie
      杰克·唐蒂博 Jack Thibeau
      桑迪·马丁 Sandy Martin
      Matt Landers Matt Landers
      皮特·杰森 Peter Jason
      克里斯·马尔基 Chris Mulkey
      马塞利诺·桑切斯 Marcelino Sánchez
      Bennie E. Dobbins Bennie E. Dobbins
      Begonya Plaza Begonya Plaza
      罗伊德·卡特莱特 Loyd Catlett
      里德·克鲁克香克斯 Reid Cruickshanks
      R.D. Call R.D. Call
      布伦达·维纳斯 Brenda Venus
      约翰·丹尼斯·约翰斯顿 John Dennis Johnston
      Jack Lightsy Jack Lightsy
      Luis Contreras Luis Contreras
      欧拉·蕾 Ola Ray
      Fritz Ford Fritz Ford
      Kevin O'Neal Kevin O'Neal
      Walter Scott Walter Scott
      John Hauk John Hauk
      劳伦斯·戈登 Lawrence Gordon
      乔·西尔沃 Joel Silver
      詹姆斯·霍纳 James Horner
      Ric Waite Ric Waite
      比利·韦伯 Billy Weber
      马克·华纳 Mark Warner
      Freeman A. Davies Freeman A. Davies
      Judith Holstra Judith Holstra
      约翰·瓦隆 John Vallone
      Richard C. Goddard Richard C. Goddard
      玛丽莲·万斯 Marilyn Vance
      爱德华·F.·恩里克斯 Edouard F. Henriques
      迈克尔·杰曼 Michael Germain
      David Sosna David Sosna

◎标  签 美国 / 喜剧 / 动作 / 犯罪 / 1982 / 警匪 / 美国电影 / 艾迪·墨菲

◎简  介
  杰克凯斯为三藩市一名资深警探,从21岁加入警界以来一直未能有所表现。雷吉汉蒙德为黑人区一名惯犯,从15岁起开始犯案累累。巧的是两人都想力图改变现况,而更巧的是两人竟然在同时间不期而遇,因此引发了一场争斗。
重刑犯艾伯特·刚茨在他的老搭档比利·拜尔的帮助下成功越狱,他们立即杀死了自己的同伙亨利·王,用假名字住进了三藩市的瓦尔登旅馆。年轻干探杰克·盖茨(Nick Nolte饰)郁不得志,酗酒成性。此番受命与同事VanZant 和Algren入住瓦尔登旅馆,调查名叫G. P. Polson的人,不想VanZant 和Algren被艾伯特所害。杰克欲为同事报仇,劝服上司Haden让他独立办案。杰克到监狱探视艾伯特从前的搭档雷吉·汉蒙德(Eddie Murphy饰),以减刑为由,希望雷吉帮助他抓捕艾伯特和比利,雷吉勉强答应,但杰克只能将其带出监狱48小时,更糟...

Video
ID : 1
Format : HEVC
Format/Info : High Efficiency Video Coding
Format profile : Main [email protected]@High
HDR format : Dolby Vision, Version 1.0, dvhe.05.06, BL+RPU
Codec ID : dvhe
Codec ID/Info : High Efficiency Video Coding with Dolby Vision
Duration : 1 h 36 min
Bit rate : 24.9 Mb/s
Width : 3 840 pixels
Height : 2 080 pixels
Original height : 2 076 pixels
Display aspect ratio : 1.85:1
Original display aspect ratio : 1.85:1
Frame rate mode : Constant
Frame rate : 23.976 (24000/1001/189150) FPS
Color space : YUV
Chroma subsampling : 4:2:0
Bit depth : 10 bits
Bits/(Pixel*Frame) : 0.130
Stream size : 16.8 GiB (98%)
Default : Yes
Alternate group : 1
Encoded date : UTC 2022-08-05 13:11:27
Tagged date : UTC 2022-08-05 13:13:03
Codec configuration box : hvcC+dvcC

Audio
ID : 2
Format : AC-3
Format/Info : Audio Coding 3
Commercial name : Dolby Digital
Codec ID : ac-3
Duration : 1 h 36 min
Bit rate mode : Constant
Bit rate : 384 kb/s
Maximum bit rate : 406 kb/s
Channel(s) : 6 channels
Channel layout : L R C LFE Ls Rs
Sampling rate : 48.0 kHz
Frame rate : 31.250 FPS (1536 SPF)
Compression mode : Lossy
Stream size : 265 MiB (2%)
Title : English
Language : English
Service kind : Complete Main
Default : Yes
Alternate group : 1
Tagged date : UTC 2022-08-05 13:13:03

Text #1
ID : 3
Format : Timed Text
Codec ID : tx3g
Duration : 1 h 32 min
Bit rate mode : Variable
Bit rate : 44 b/s
Frame rate : 0.231 FPS
Stream size : 29.5 KiB (0%)
Title : English
Language : English
Forced : No
Encoded date : UTC 2022-08-05 13:13:02
Tagged date : UTC 2022-08-05 13:13:03

Text #2
ID : 4
Format : Timed Text
Codec ID : tx3g
Duration : 1 h 32 min
Bit rate mode : Variable
Bit rate : 64 b/s
Frame rate : 0.428 FPS
Stream size : 43.4 KiB (0%)
Title : French
Language : French
Forced : No
Encoded date : UTC 2022-08-05 13:13:03
Tagged date : UTC 2022-08-05 13:13:03





1 个附件 售价 大小 下载 时间

48.Hrs.1982.2160p.WEB-DL.DD5.1.DV.MP4.x265-DVSUX.torrent 0 金币 21.98K 161 次 3天前

#1楼
发帖时间:2022-08-06 11:15:07   |   回复数:0
游客组