travismk
一代宗师

[2021] [其它] [剧情] [WEB-1080P] 蠼螋 Earwig.2021.1080p.WEBRip.AAC2.0.x264-KUCHU 4.67GB

-->

帖子完整标题:蠼螋 Earwig.2021.1080p.WEBRip.AAC2.0.x264-KUCHU 4.67GB



◎标  题 蠼螋
◎片  名 Earwig
◎年  代 2021
◎产  地 英国 / 法国
◎类  别 剧情
◎语  言 英语
◎上映日期 2021-09(圣塞巴斯蒂安电影节)
◎IMDb评分 5.9/10 (278人评价)
◎IMDb链接 https://www.imdb.com/title/tt10062338/
◎豆瓣链接 https://movie.douban.com/subject/34964130/
◎片  长 114分钟
◎导  演 露西尔·哈兹哈利洛维奇 Lucile Hadzihalilovic
◎编  剧 露西尔·哈兹哈利洛维奇 Lucile Hadzihalilovic
      吉尔夫·考克斯 Geoff Cox
◎演  员 保罗·希尔顿 Paul Hilton
      埃里克斯·劳瑟 Alex Lawther
      萝玛拉·嘉瑞 Romola Garai

◎简  介
  保罗·希尔顿([永恒美人])、埃里克斯·劳瑟、萝玛拉·嘉瑞将主演新片[蠼螋]。该片由露西尔·哈兹哈利洛维奇([进化岛])执导,露西尔与吉尔夫·考克斯([太空生活])共同操刀剧本。该片根据Brian Catling的同名小说改编,讲述在20世纪30年代的欧洲某地,孤僻的Albert Scellinc受雇照顾10岁的Mia。他最重要的任务是照料她的冰假牙,这些假牙需要每天都要换好几次。他们单独住在一间大公寓里:百叶窗总是拉着,Mia从不离开,每天都是一成不变。每周,电话铃声会响起,一个男声会询问Albert女孩的健康状况,Albert每周都会用同样的答案来回答,直到有一天,那个声音告诉Albert,他必须坐着火车把女孩带到巴黎去。Albert伤心欲绝,他感觉他的世界在他身边慢慢解体了。该片已在比利时开拍。

Video
ID : 1
Format : AVC
Format/Info : Advanced Video Codec
Format profile : [email protected]
Format settings : CABAC / 4 Ref Frames
Format settings, CABAC : Yes
Format settings, Reference frames : 4 frames
Codec ID : V_MPEG4/ISO/AVC
Duration : 1 h 54 min
Bit rate : 5 523 kb/s
Width : 1 920 pixels
Height : 1 080 pixels
Display aspect ratio : 16:9
Frame rate mode : Constant
Frame rate : 24.000 FPS
Color space : YUV
Chroma subsampling : 4:2:0
Bit depth : 8 bits
Scan type : Progressive
Bits/(Pixel*Frame) : 0.111
Stream size : 4.41 GiB (95%)
Default : Yes
Forced : No

Audio
ID : 2
Format : AAC LC
Format/Info : Advanced Audio Codec Low Complexity
Codec ID : A_AAC-2
Duration : 1 h 54 min
Bit rate : 317 kb/s
Channel(s) : 2 channels
Channel layout : L R
Sampling rate : 48.0 kHz
Frame rate : 46.875 FPS (1024 SPF)
Compression mode : Lossy
Stream size : 260 MiB (5%)
Language : English
Default : Yes
Forced : No

Text
ID : 3
Format : UTF-8
Codec ID : S_TEXT/UTF8
Codec ID/Info : UTF-8 Plain Text
Duration : 1 h 25 min
Bit rate : 5 b/s
Frame rate : 0.028 FPS
Count of elements : 144
Stream size : 3.63 KiB (0%)
Language : English
Default : Yes
Forced : No





1 个附件 售价 大小 下载 时间

Earwig.2021.1080p.WEBRip.AAC2.0.x264-KUCHU.torrent 0 金币 23.94K 357 次 3天前

#1楼
发帖时间:2022-08-06 11:29:02   |   回复数:0
游客组