topgood
一代宗师

[2022] [其它] [科幻] [WEB-1080P] 末日协议 The.Deal.2022.1080p.WEBRip.DD5.1.x264-CM 4.66GB

-->

帖子完整标题:末日协议 The.Deal.2022.1080p.WEBRip.DD5.1.x264-CM 4.66GB



◎标  题 末日协议
◎片  名 The Deal
◎年  代 2022
◎产  地 美国 / 塞尔维亚
◎类  别 科幻
◎语  言 英语
◎IMDb评分 7.3/10 (17人评价)
◎IMDb链接 https://www.imdb.com/title/tt11220408/
◎豆瓣链接 https://movie.douban.com/subject/35655208/
◎编  剧 素玛立·蒙塔诺 Sumalee Montano
◎演  员 Emma Fischer Emma Fischer
      阿拉斯塔尔·麦肯泽 Alastair Mackenzie
      素玛立·蒙塔诺 Sumalee Montano

◎简  介
  An unprecedented pandemic has ravaged the planet, leaving resources insufficient to maintain the human population. To combat the crisis, a totalitarian governing body known as The Bureau established "The Deal.” Accept The Deal, and you'll receive a job, housing, and medical care that will keep you safe and healthy for twenty more years, at which point you must take your own lif...

Video
ID : 1
Format : AVC
Format/Info : Advanced Video Codec
Format profile : [email protected]
Format settings : CABAC / 5 Ref Frames
Format settings, CABAC : Yes
Format settings, Reference frames : 5 frames
Codec ID : V_MPEG4/ISO/AVC
Duration : 1 h 35 min
Bit rate : 6 626 kb/s
Width : 1 920 pixels
Height : 802 pixels
Display aspect ratio : 2.40:1
Frame rate mode : Constant
Frame rate : 24.000 FPS
Color space : YUV
Chroma subsampling : 4:2:0
Bit depth : 8 bits
Scan type : Progressive
Bits/(Pixel*Frame) : 0.179
Stream size : 4.40 GiB (94%)
Language : English
Default : Yes
Forced : No
Color range : Limited
Color primaries : BT.709
Transfer characteristics : BT.709
Matrix coefficients : BT.709

Audio
ID : 2
Format : AC-3
Format/Info : Audio Coding 3
Commercial name : Dolby Digital
Codec ID : A_AC3
Duration : 1 h 35 min
Bit rate mode : Constant
Bit rate : 384 kb/s
Channel(s) : 6 channels
Channel layout : L R C LFE Ls Rs
Sampling rate : 48.0 kHz
Frame rate : 31.250 FPS (1536 SPF)
Compression mode : Lossy
Stream size : 261 MiB (5%)
Language : English
Service kind : Complete Main
Default : Yes
Forced : No

Menu
00:00:00.000 : en:Chapter 01
00:09:06.504 : en:Chapter 02
00:15:42.359 : en:Chapter 03
00:24:43.900 : en:Chapter 04
00:32:07.802 : en:Chapter 05
00:38:43.323 : en:Chapter 06
00:48:36.291 : en:Chapter 07
00:57:48.385 : en:Chapter 08
01:04:52.642 : en:Chapter 09
01:11:43.762 : en:Chapter 10
01:20:20.028 : en:Chapter 11
01:31:53.513 : en:Chapter 12





1 个附件 售价 大小 下载 时间

The.Deal.2022.1080p.WEBRip.DD5.1.x264-CM.torrent 0 金币 23.90K 1036 次 1天前

#1楼
发帖时间:2022-09-23 17:48:58   |   回复数:0
游客组