topgood
一代宗师

[2022] [其它] [剧情] [WEB-1080P] 雅典娜 ATHENA.2022.FRENCH.1080p.NF.WEBRip.DDP5.1.Atmos.x264-SMURF 2.88GB

-->

帖子完整标题:雅典娜 ATHENA.2022.FRENCH.1080p.NF.WEBRip.DDP5.1.Atmos.x264-SMURF 2.88GB



◎标  题 雅典娜
◎译  名 Moussa / RG03
◎片  名 Athena
◎年  代 2022
◎产  地 法国
◎类  别 剧情 / 动作
◎语  言 法语
◎上映日期 2022-09-02(威尼斯电影节) / 2022-09-09(法国) / 2022-09-23(法国网络)
◎IMDb评分 7/10 (151人评价)
◎IMDb链接 https://www.imdb.com/title/tt15445056/
◎豆瓣链接 https://movie.douban.com/subject/35614410/
◎片  长 99分钟
◎导  演 罗曼·加夫拉斯 Romain Gavras
◎编  剧 罗曼·加夫拉斯 Romain Gavras
      拉吉·利 Ladj Ly
      埃里亚斯·贝尔克达尔 Elias Belkeddar
◎演  员 达利·本萨拉赫 Dali Benssalah
      安东尼·巴容 Anthony Bajon
      瓦萨尼·恩巴雷克 Ouassini Embarek
      亚历克西斯·曼蒂 Alexis Manenti
      Karim Lasmi Karim Lasmi

◎简  介
  After the death of his youngest brother following an alleged police altercation, Abdel (Dali Benssalah) is called back from the frontline to find his family torn apart. Caught between his younger brother Karim's (Sami Slimane) desire for revenge and the criminal dealings of his older brother Moktar (Ouassini Embarek), he struggles to calm the rising tensions. As the situation e...

Video
ID : 1
Format : AVC
Format/Info : Advanced Video Codec
Format profile : [email protected]
Format settings : CABAC / 3 Ref Frames
Format settings, CABAC : Yes
Format settings, Reference frames : 3 frames
Codec ID : V_MPEG4/ISO/AVC
Duration : 1 h 39 min
Bit rate mode : Variable
Bit rate : 2 606 kb/s
Nominal bit rate : 1 576 kb/s
Maximum bit rate : 6 330 kb/s
Width : 1 920 pixels
Height : 1 080 pixels
Display aspect ratio : 16:9
Frame rate mode : Constant
Frame rate : 24.000 FPS
Color space : YUV
Chroma subsampling : 4:2:0
Bit depth : 8 bits
Scan type : Progressive
Bits/(Pixel*Frame) : 0.052
Stream size : 1.81 GiB (63%)
Writing library : x264 core 148 r2727 7d026e8
Encoding settings : cabac=1 / ref=3 / deblock=1:0:0 / analyse=0x1:0x111 / me=umh / subme=10 / psy=1 / psy_rd=1.00:0.00 / mixed_ref=1 / me_range=24 / chroma_me=1 / trellis=2 / 8x8dct=0 / cqm=0 / deadzone=21,11 / fast_pskip=1 / chroma_qp_offset=-2 / threads=8 / lookahead_threads=1 / sliced_threads=0 / nr=0 / decimate=1 / interlaced=0 / bluray_compat=0 / stitchable=1 / constrained_intra=0 / bframes=2 / b_pyramid=0 / b_adapt=2 / b_bias=0 / direct=3 / weightb=1 / open_gop=0 / weightp=2 / keyint=250 / keyint_min=24 / scenecut=0 / intra_refresh=0 / rc_lookahead=48 / rc=2pass / mbtree=1 / bitrate=1576 / ratetol=1.0 / qcomp=0.50 / qpmin=6 / qpmax=51 / qpstep=4 / cplxblur=20.0 / qblur=0.5 / vbv_maxrate=6330 / vbv_bufsize=8440 / nal_hrd=vbr / filler=0 / ip_ratio=1.40 / aq=1:1.00
Language : French
Default : Yes
Forced : No

Audio #1
ID : 2
Format : E-AC-3 JOC
Format/Info : Enhanced AC-3 with Joint Object Coding
Commercial name : Dolby Digital Plus with Dolby Atmos
Codec ID : A_EAC3
Duration : 1 h 39 min
Bit rate mode : Constant
Bit rate : 768 kb/s
Channel(s) : 6 channels
Channel layout : L R C LFE Ls Rs
Sampling rate : 48.0 kHz
Frame rate : 31.250 FPS (1536 SPF)
Compression mode : Lossy
Stream size : 547 MiB (19%)
Language : French
Service kind : Complete Main
Default : Yes
Forced : No
Complexity index : 16
Number of dynamic objects : 15
Bed channel count : 1 channel
Bed channel configuration : LFE

Audio #2
ID : 3
Format : E-AC-3 JOC
Format/Info : Enhanced AC-3 with Joint Object Coding
Commercial name : Dolby Digital Plus with Dolby Atmos
Codec ID : A_EAC3
Duration : 1 h 39 min
Bit rate mode : Constant
Bit rate : 768 kb/s
Channel(s) : 6 channels
Channel layout : L R C LFE Ls Rs
Sampling rate : 48.0 kHz
Frame rate : 31.250 FPS (1536 SPF)
Compression mode : Lossy
Stream size : 547 MiB (19%)
Title : British
Language : English
Service kind : Complete Main
Default : No
Forced : No
Complexity index : 16
Number of dynamic objects : 15
Bed channel count : 1 channel
Bed channel configuration : LFE

Text #1
ID : 4
Format : UTF-8
Codec ID : S_TEXT/UTF8
Codec ID/Info : UTF-8 Plain Text
Duration : 1 h 24 min
Bit rate : 53 b/s
Frame rate : 0.207 FPS
Count of elements : 1050
Stream size : 33.1 KiB (0%)
Language : French
Default : No
Forced : No

Text #2
ID : 5
Format : UTF-8
Codec ID : S_TEXT/UTF8
Codec ID/Info : UTF-8 Plain Text
Duration : 1 h 30 min
Bit rate : 65 b/s
Frame rate : 0.241 FPS
Count of elements : 1313
Stream size : 43.5 KiB (0%)
Title : SDH
Language : French
Default : No
Forced : No

Text #3
ID : 6
Format : UTF-8
Codec ID : S_TEXT/UTF8
Codec ID/Info : UTF-8 Plain Text
Duration : 1 h 24 min
Bit rate : 0 b/s
Frame rate : 0.001 FPS
Count of elements : 6
Stream size : 141 Bytes (0%)
Title : British (Forced)
Language : English
Default : No
Forced : Yes

Text #4
ID : 7
Format : UTF-8
Codec ID : S_TEXT/UTF8
Codec ID/Info : UTF-8 Plain Text
Duration : 1 h 35 min
Bit rate : 26 b/s
Frame rate : 0.116 FPS
Count of elements : 667
Stream size : 18.4 KiB (0%)
Title : British
Language : English
Default : No
Forced : No

Text #5
ID : 8
Format : UTF-8
Codec ID : S_TEXT/UTF8
Codec ID/Info : UTF-8 Plain Text
Duration : 1 h 31 min
Bit rate : 71 b/s
Frame rate : 0.241 FPS
Count of elements : 1326
Stream size : 48.2 KiB (0%)
Title : British (SDH)
Language : English
Default : No
Forced : No

Text #6
ID : 9
Format : UTF-8
Codec ID : S_TEXT/UTF8
Codec ID/Info : UTF-8 Plain Text
Duration : 1 h 36 min
Bit rate : 49 b/s
Frame rate : 0.121 FPS
Count of elements : 704
Stream size : 35.3 KiB (0%)
Language : Arabic
Default : No
Forced : No

Text #7
ID : 10
Format : UTF-8
Codec ID : S_TEXT/UTF8
Codec ID/Info : UTF-8 Plain Text
Duration : 1 h 37 min
Bit rate : 30 b/s
Frame rate : 0.122 FPS
Count of elements : 712
Stream size : 21.8 KiB (0%)
Language : Catalan
Default : No
Forced : No

Text #8
ID : 11
Format : UTF-8
Codec ID : S_TEXT/UTF8
Codec ID/Info : UTF-8 Plain Text
Duration : 1 h 36 min
Bit rate : 28 b/s
Frame rate : 0.116 FPS
Count of elements : 676
Stream size : 20.5 KiB (0%)
Language : Czech
Default : No
Forced : No

Text #9
ID : 12
Format : UTF-8
Codec ID : S_TEXT/UTF8
Codec ID/Info : UTF-8 Plain Text
Duration : 1 h 36 min
Bit rate : 26 b/s
Frame rate : 0.113 FPS
Count of elements : 659
Stream size : 19.1 KiB (0%)
Language : Danish
Default : No
Forced : No

Text #10
ID : 13
Format : UTF-8
Codec ID : S_TEXT/UTF8
Codec ID/Info : UTF-8 Plain Text
Duration : 1 h 36 min
Bit rate : 31 b/s
Frame rate : 0.114 FPS
Count of elements : 665
Stream size : 22.3 KiB (0%)
Language : German
Default : No
Forced : No

Text #11
ID : 14
Format : UTF-8
Codec ID : S_TEXT/UTF8
Codec ID/Info : UTF-8 Plain Text
Duration : 1 h 31 min
Bit rate : 47 b/s
Frame rate : 0.166 FPS
Count of elements : 915
Stream size : 32.0 KiB (0%)
Language : German
Default : No
Forced : No

Text #12
ID : 15
Format : UTF-8
Codec ID : S_TEXT/UTF8
Codec ID/Info : UTF-8 Plain Text
Duration : 1 h 31 min
Bit rate : 60 b/s
Frame rate : 0.225 FPS
Count of elements : 1237
Stream size : 41.0 KiB (0%)
Title : SDH
Language : German
Default : No
Forced : No

Text #13
ID : 16
Format : UTF-8
Codec ID : S_TEXT/UTF8
Codec ID/Info : UTF-8 Plain Text
Duration : 1 h 36 min
Bit rate : 49 b/s
Frame rate : 0.125 FPS
Count of elements : 728
Stream size : 35.0 KiB (0%)
Language : Greek
Default : No
Forced : No

Text #14
ID : 17
Format : UTF-8
Codec ID : S_TEXT/UTF8
Codec ID/Info : UTF-8 Plain Text
Duration : 1 h 30 min
Bit rate : 55 b/s
Frame rate : 0.198 FPS
Count of elements : 1076
Stream size : 36.9 KiB (0%)
Language : Spanish
Default : No
Forced : No

Text #15
ID : 18
Format : UTF-8
Codec ID : S_TEXT/UTF8
Codec ID/Info : UTF-8 Plain Text
Duration : 1 h 36 min
Bit rate : 29 b/s
Frame rate : 0.116 FPS
Count of elements : 675
Stream size : 20.7 KiB (0%)
Language : Spanish
Default : No
Forced : No

Text #16
ID : 19
Format : UTF-8
Codec ID : S_TEXT/UTF8
Codec ID/Info : UTF-8 Plain Text
Duration : 1 h 37 min
Bit rate : 34 b/s
Frame rate : 0.125 FPS
Count of elements : 727
Stream size : 24.7 KiB (0%)
Title : European
Language : Spanish
Default : No
Forced : No

Text #17
ID : 20
Format : UTF-8
Codec ID : S_TEXT/UTF8
Codec ID/Info : UTF-8 Plain Text
Duration : 1 h 31 min
Bit rate : 72 b/s
Frame rate : 0.261 FPS
Count of elements : 1437
Stream size : 49.0 KiB (0%)
Title : SDH
Language : Spanish
Default : No
Forced : No

Text #18
ID : 21
Format : UTF-8
Codec ID : S_TEXT/UTF8
Codec ID/Info : UTF-8 Plain Text
Duration : 1 h 36 min
Bit rate : 28 b/s
Frame rate : 0.115 FPS
Count of elements : 672
Stream size : 19.9 KiB (0%)
Language : Basque
Default : No
Forced : No

Text #19
ID : 22
Format : UTF-8
Codec ID : S_TEXT/UTF8
Codec ID/Info : UTF-8 Plain Text
Duration : 1 h 36 min
Bit rate : 28 b/s
Frame rate : 0.107 FPS
Count of elements : 622
Stream size : 20.5 KiB (0%)
Language : Finnish
Default : No
Forced : No

Text #20
ID : 23
Format : UTF-8
Codec ID : S_TEXT/UTF8
Codec ID/Info : UTF-8 Plain Text
Duration : 1 h 36 min
Bit rate : 31 b/s
Frame rate : 0.115 FPS
Count of elements : 667
Stream size : 22.2 KiB (0%)
Language : fil
Default : No
Forced : No

Text #21
ID : 24
Format : UTF-8
Codec ID : S_TEXT/UTF8
Codec ID/Info : UTF-8 Plain Text
Duration : 1 h 36 min
Bit rate : 30 b/s
Frame rate : 0.119 FPS
Count of elements : 693
Stream size : 21.4 KiB (0%)
Language : Galician
Default : No
Forced : No

Text #22
ID : 25
Format : UTF-8
Codec ID : S_TEXT/UTF8
Codec ID/Info : UTF-8 Plain Text
Duration : 1 h 36 min
Bit rate : 46 b/s
Frame rate : 0.116 FPS
Count of elements : 677
Stream size : 32.7 KiB (0%)
Language : Hebrew
Default : No
Forced : No

Text #23
ID : 26
Format : UTF-8
Codec ID : S_TEXT/UTF8
Codec ID/Info : UTF-8 Plain Text
Duration : 1 h 36 min
Bit rate : 25 b/s
Frame rate : 0.116 FPS
Count of elements : 675
Stream size : 18.3 KiB (0%)
Language : Croatian
Default : No
Forced : No

Text #24
ID : 27
Format : UTF-8
Codec ID : S_TEXT/UTF8
Codec ID/Info : UTF-8 Plain Text
Duration : 1 h 36 min
Bit rate : 29 b/s
Frame rate : 0.113 FPS
Count of elements : 657
Stream size : 20.7 KiB (0%)
Language : Hungarian
Default : No
Forced : No

Text #25
ID : 28
Format : UTF-8
Codec ID : S_TEXT/UTF8
Codec ID/Info : UTF-8 Plain Text
Duration : 1 h 36 min
Bit rate : 28 b/s
Frame rate : 0.115 FPS
Count of elements : 671
Stream size : 20.3 KiB (0%)
Language : Indonesian
Default : No
Forced : No

Text #26
ID : 29
Format : UTF-8
Codec ID : S_TEXT/UTF8
Codec ID/Info : UTF-8 Plain Text
Duration : 1 h 36 min
Bit rate : 30 b/s
Frame rate : 0.120 FPS
Count of elements : 701
Stream size : 21.6 KiB (0%)
Language : Italian
Default : No
Forced : No

Text #27
ID : 30
Format : UTF-8
Codec ID : S_TEXT/UTF8
Codec ID/Info : UTF-8 Plain Text
Duration : 1 h 36 min
Bit rate : 30 b/s
Frame rate : 0.132 FPS
Count of elements : 768
Stream size : 21.4 KiB (0%)
Language : Japanese
Default : No
Forced : No

Text #28
ID : 31
Format : UTF-8
Codec ID : S_TEXT/UTF8
Codec ID/Info : UTF-8 Plain Text
Duration : 1 h 36 min
Bit rate : 36 b/s
Frame rate : 0.115 FPS
Count of elements : 672
Stream size : 25.7 KiB (0%)
Language : Korean
Default : No
Forced : No

Text #29
ID : 32
Format : UTF-8
Codec ID : S_TEXT/UTF8
Codec ID/Info : UTF-8 Plain Text
Duration : 1 h 36 min
Bit rate : 29 b/s
Frame rate : 0.120 FPS
Count of elements : 701
Stream size : 20.7 KiB (0%)
Language : Malay
Default : No
Forced : No

Text #30
ID : 33
Format : UTF-8
Codec ID : S_TEXT/UTF8
Codec ID/Info : UTF-8 Plain Text
Duration : 1 h 36 min
Bit rate : 25 b/s
Frame rate : 0.113 FPS
Count of elements : 659
Stream size : 18.4 KiB (0%)
Language : Norwegian Bokmal
Default : No
Forced : No

Text #31
ID : 34
Format : UTF-8
Codec ID : S_TEXT/UTF8
Codec ID/Info : UTF-8 Plain Text
Duration : 1 h 36 min
Bit rate : 27 b/s
Frame rate : 0.115 FPS
Count of elements : 667
Stream size : 19.9 KiB (0%)
Language : Dutch
Default : No
Forced : No

Text #32
ID : 35
Format : UTF-8
Codec ID : S_TEXT/UTF8
Codec ID/Info : UTF-8 Plain Text
Duration : 1 h 36 min
Bit rate : 26 b/s
Frame rate : 0.116 FPS
Count of elements : 674
Stream size : 19.0 KiB (0%)
Language : Polish
Default : No
Forced : No

Text #33
ID : 36
Format : UTF-8
Codec ID : S_TEXT/UTF8
Codec ID/Info : UTF-8 Plain Text
Duration : 1 h 36 min
Bit rate : 29 b/s
Frame rate : 0.114 FPS
Count of elements : 663
Stream size : 20.9 KiB (0%)
Language : Portuguese
Default : No
Forced : No

Text #34
ID : 37
Format : UTF-8
Codec ID : S_TEXT/UTF8
Codec ID/Info : UTF-8 Plain Text
Duration : 1 h 31 min
Bit rate : 50 b/s
Frame rate : 0.180 FPS
Count of elements : 991
Stream size : 34.1 KiB (0%)
Title : Brazilian
Language : Portuguese
Default : No
Forced : No

Text #35
ID : 38
Format : UTF-8
Codec ID : S_TEXT/UTF8
Codec ID/Info : UTF-8 Plain Text
Duration : 1 h 36 min
Bit rate : 29 b/s
Frame rate : 0.116 FPS
Count of elements : 677
Stream size : 21.1 KiB (0%)
Title : Brazilian
Language : Portuguese
Default : No
Forced : No

Text #36
ID : 39
Format : UTF-8
Codec ID : S_TEXT/UTF8
Codec ID/Info : UTF-8 Plain Text
Duration : 1 h 36 min
Bit rate : 60 b/s
Frame rate : 0.212 FPS
Count of elements : 1229
Stream size : 43.1 KiB (0%)
Title : Brazilian (SDH)
Language : Portuguese
Default : No
Forced : No

Text #37
ID : 40
Format : UTF-8
Codec ID : S_TEXT/UTF8
Codec ID/Info : UTF-8 Plain Text
Duration : 1 h 36 min
Bit rate : 32 b/s
Frame rate : 0.115 FPS
Count of elements : 671
Stream size : 22.9 KiB (0%)
Language : Romanian
Default : No
Forced : No

Text #38
ID : 41
Format : UTF-8
Codec ID : S_TEXT/UTF8
Codec ID/Info : UTF-8 Plain Text
Duration : 1 h 36 min
Bit rate : 48 b/s
Frame rate : 0.123 FPS
Count of elements : 717
Stream size : 34.4 KiB (0%)
Language : Russian
Default : No
Forced : No

Text #39
ID : 42
Format : UTF-8
Codec ID : S_TEXT/UTF8
Codec ID/Info : UTF-8 Plain Text
Duration : 1 h 36 min
Bit rate : 28 b/s
Frame rate : 0.112 FPS
Count of elements : 653
Stream size : 19.9 KiB (0%)
Language : Swedish
Default : No
Forced : No

Text #40
ID : 43
Format : UTF-8
Codec ID : S_TEXT/UTF8
Codec ID/Info : UTF-8 Plain Text
Duration : 1 h 36 min
Bit rate : 78 b/s
Frame rate : 0.163 FPS
Count of elements : 946
Stream size : 55.5 KiB (0%)
Language : Thai
Default : No
Forced : No

Text #41
ID : 44
Format : UTF-8
Codec ID : S_TEXT/UTF8
Codec ID/Info : UTF-8 Plain Text
Duration : 1 h 36 min
Bit rate : 28 b/s
Frame rate : 0.116 FPS
Count of elements : 674
Stream size : 20.5 KiB (0%)
Language : Turkish
Default : No
Forced : No

Text #42
ID : 45
Format : UTF-8
Codec ID : S_TEXT/UTF8
Codec ID/Info : UTF-8 Plain Text
Duration : 1 h 36 min
Bit rate : 46 b/s
Frame rate : 0.115 FPS
Count of elements : 670
Stream size : 33.2 KiB (0%)
Language : Ukrainian
Default : No
Forced : No

Text #43
ID : 46
Format : UTF-8
Codec ID : S_TEXT/UTF8
Codec ID/Info : UTF-8 Plain Text
Duration : 1 h 36 min
Bit rate : 40 b/s
Frame rate : 0.114 FPS
Count of elements : 661
Stream size : 28.6 KiB (0%)
Language : Vietnamese
Default : No
Forced : No

Text #44
ID : 47
Format : UTF-8
Codec ID : S_TEXT/UTF8
Codec ID/Info : UTF-8 Plain Text
Duration : 1 h 36 min
Bit rate : 32 b/s
Frame rate : 0.116 FPS
Count of elements : 676
Stream size : 22.8 KiB (0%)
Title : Simplified
Language : Chinese
Default : No
Forced : No

Text #45
ID : 48
Format : UTF-8
Codec ID : S_TEXT/UTF8
Codec ID/Info : UTF-8 Plain Text
Duration : 1 h 36 min
Bit rate : 28 b/s
Frame rate : 0.117 FPS
Count of elements : 678
Stream size : 20.5 KiB (0%)
Title : Traditional
Language : Chinese
Default : No
Forced : No





1 个附件 售价 大小 下载 时间

ATHENA.2022.FRENCH.1080p.NF.WEBRip.DDP5.1.Atmos.x264-SMURF.torrent 0 金币 29.48K 1673 次 1天前

#1楼
发帖时间:2022-09-23 17:57:21   |   回复数:1
show55667878
武林高手
感謝分享這電影
5小时前 #2楼
游客组