topgood
一代宗师

[2022] [其它] [剧情] [WEB-720P] 炼狱机器 The.Infernal.Machine.2022.720p.WEBRip.DD5.1.x264-CM 2.50GB

-->

帖子完整标题:炼狱机器 The.Infernal.Machine.2022.720p.WEBRip.DD5.1.x264-CM 2.50GB



◎标  题 炼狱机器
◎片  名 The Infernal Machine
◎年  代 2022
◎产  地 美国 / 英国
◎类  别 剧情 / 悬疑 / 惊悚 / 恐怖
◎语  言 英语
◎上映日期 2022-09-23(美国)
◎IMDb链接 https://www.imdb.com/title/tt15275256/
◎豆瓣链接 https://movie.douban.com/subject/36006701/
◎导  演 安德鲁·亨特 Andrew Hunt
◎编  剧 安德鲁·亨特 Andrew Hunt
◎演  员 爱丽丝·伊芙 Alice Eve
      盖·皮尔斯 Guy Pearce
      亚历克斯·帕蒂弗 Alex Pettyfer
      艾瑞斯·卡亚特 Iris Cayatte
      安娜洛佩斯 Ana Lopes
      乔治娅·古德曼 Georgia Goodman
      艾薇儿·拉维尼 Avril Lavigne
      凯特·卡普肖 Kate Capshaw

◎简  介
  隐居且有争议的作家布鲁斯·科伯恩(BruceCogburn)被一位痴迷的粉丝从隐藏中拉了出来,迫使这位小说家面对他认为可以逃离的过去,并解释他畅销书几十年前引发的事件。科伯恩寻找谁是他所遭遇的操纵和精神折磨的幕后黑手,导致了一场充满恐惧和危险的情感过山车之旅,在那里,事情并不总是像表面上那样清楚,过去的行为可能会产生可怕的后果。

Video
ID : 1
Format : AVC
Format/Info : Advanced Video Codec
Format profile : [email protected]
Format settings : CABAC / 5 Ref Frames
Format settings, CABAC : Yes
Format settings, Reference frames : 5 frames
Codec ID : V_MPEG4/ISO/AVC
Duration : 1 h 51 min
Bit rate : 2 837 kb/s
Width : 1 488 pixels
Height : 618 pixels
Display aspect ratio : 2.40:1
Frame rate mode : Constant
Frame rate : 23.976 (24000/1001/189150) FPS
Color space : YUV
Chroma subsampling : 4:2:0
Bit depth : 8 bits
Scan type : Progressive
Bits/(Pixel*Frame) : 0.129
Stream size : 2.20 GiB (88%)
Language : English
Default : Yes
Forced : No
Color range : Limited
Color primaries : BT.709
Transfer characteristics : BT.709
Matrix coefficients : BT.709

Audio
ID : 2
Format : AC-3
Format/Info : Audio Coding 3
Commercial name : Dolby Digital
Codec ID : A_AC3
Duration : 1 h 51 min
Bit rate mode : Constant
Bit rate : 384 kb/s
Channel(s) : 6 channels
Channel layout : L R C LFE Ls Rs
Sampling rate : 48.0 kHz
Frame rate : 31.250 FPS (1536 SPF)
Compression mode : Lossy
Stream size : 305 MiB (12%)
Language : English
Service kind : Complete Main
Default : Yes
Forced : No

Text #1
ID : 3
Format : UTF-8
Codec ID : S_TEXT/UTF8
Codec ID/Info : UTF-8 Plain Text
Duration : 1 h 50 min
Bit rate : 58 b/s
Frame rate : 0.215 FPS
Count of elements : 1424
Stream size : 47.1 KiB (0%)
Title : SDH
Language : English
Default : No
Forced : No

Text #2
ID : 4
Format : UTF-8
Codec ID : S_TEXT/UTF8
Codec ID/Info : UTF-8 Plain Text
Duration : 1 h 50 min
Bit rate : 49 b/s
Frame rate : 0.176 FPS
Count of elements : 1169
Stream size : 39.9 KiB (0%)
Language : English
Default : No
Forced : No

Menu
00:00:00.000 : en:Chapter 01
00:07:51.137 : en:Chapter 02
00:16:40.125 : en:Chapter 03
00:22:55.750 : en:Chapter 04
00:31:55.081 : en:Chapter 05
00:38:27.182 : en:Chapter 06
00:47:45.365 : en:Chapter 07
00:56:22.632 : en:Chapter 08
01:05:37.854 : en:Chapter 09
01:11:03.263 : en:Chapter 10
01:18:44.099 : en:Chapter 11
01:23:27.215 : en:Chapter 12
01:29:29.828 : en:Chapter 13
01:39:24.756 : en:Chapter 14
01:46:17.043 : en:Chapter 15





1 个附件 售价 大小 下载 时间

The.Infernal.Machine.2022.720p.WEBRip.DD5.1.x264-CM.torrent 0 金币 25.66K 532 次 1天前

#1楼
发帖时间:2022-09-23 18:07:05   |   回复数:0
游客组