topgood
一代宗师

[2022] [欧美] [惊悚] [WEB-720P] 执法者 The.Enforcer.2022.720p.WEBRip.DD5.1.x264-CM 2.04GB

-->

帖子完整标题:执法者 The.Enforcer.2022.720p.WEBRip.DD5.1.x264-CM 2.04GB



◎标  题 执法者
◎片  名 The Enforcer
◎年  代 2022
◎产  地 美国
◎类  别 惊悚
◎语  言 英语
◎上映日期 2022-09-22(美国)
◎IMDb评分 7/10 (22人评价)
◎IMDb链接 https://www.imdb.com/title/tt14857730/
◎豆瓣链接 https://movie.douban.com/subject/35599332/
◎导  演 李查德·休斯 Richard Hughes
◎编  剧 W·彼得·伊利夫 W. Peter Iliff
◎演  员 安东尼奥·班德拉斯 Antonio Banderas
      凯特·波茨沃斯 Kate Bosworth
      马克·史密斯 Mark Rhino Smith
      莫让·阿里亚 Mojean Aria
      亚伦·科恩 Aaron Cohen
      Alexis Ren Alexis Ren

◎简  介
  一个执法者不得不牺牲一切来拯救一个年轻的女孩,这个女孩是他从他的女老板那里结识的,她参与了网络性交易。

Video
ID : 1
Format : AVC
Format/Info : Advanced Video Codec
Format profile : [email protected]
Format settings : CABAC / 5 Ref Frames
Format settings, CABAC : Yes
Format settings, Reference frames : 5 frames
Codec ID : V_MPEG4/ISO/AVC
Duration : 1 h 30 min
Bit rate : 2 832 kb/s
Width : 1 478 pixels
Height : 620 pixels
Display aspect ratio : 2.40:1
Frame rate mode : Constant
Frame rate : 23.976 (24000/1001/189150) FPS
Color space : YUV
Chroma subsampling : 4:2:0
Bit depth : 8 bits
Scan type : Progressive
Bits/(Pixel*Frame) : 0.129
Stream size : 1.79 GiB (88%)
Language : English
Default : Yes
Forced : No
Color range : Limited
Color primaries : BT.709
Transfer characteristics : BT.709
Matrix coefficients : BT.709

Audio
ID : 2
Format : AC-3
Format/Info : Audio Coding 3
Commercial name : Dolby Digital
Codec ID : A_AC3
Duration : 1 h 30 min
Bit rate mode : Constant
Bit rate : 384 kb/s
Channel(s) : 6 channels
Channel layout : L R C LFE Ls Rs
Sampling rate : 48.0 kHz
Frame rate : 31.250 FPS (1536 SPF)
Compression mode : Lossy
Stream size : 249 MiB (12%)
Language : English
Service kind : Complete Main
Default : Yes
Forced : No

Text #1
ID : 3
Format : UTF-8
Codec ID : S_TEXT/UTF8
Codec ID/Info : UTF-8 Plain Text
Duration : 1 h 24 min
Bit rate : 58 b/s
Frame rate : 0.273 FPS
Count of elements : 1391
Stream size : 36.1 KiB (0%)
Title : SDH
Language : English
Default : No
Forced : No

Text #2
ID : 4
Format : UTF-8
Codec ID : S_TEXT/UTF8
Codec ID/Info : UTF-8 Plain Text
Duration : 1 h 24 min
Bit rate : 50 b/s
Frame rate : 0.220 FPS
Count of elements : 1114
Stream size : 31.0 KiB (0%)
Language : English
Default : No
Forced : No

Menu
00:00:00.000 : en:Chapter 01
00:05:28.578 : en:Chapter 02
00:11:22.015 : en:Chapter 03
00:15:29.429 : en:Chapter 04
00:20:22.263 : en:Chapter 05
00:25:28.862 : en:Chapter 06
00:29:52.375 : en:Chapter 07
00:36:20.263 : en:Chapter 08
00:41:10.387 : en:Chapter 09
00:46:31.583 : en:Chapter 10
00:51:04.272 : en:Chapter 11
00:59:33.365 : en:Chapter 12
01:05:02.819 : en:Chapter 13
01:10:12.128 : en:Chapter 14
01:16:57.242 : en:Chapter 15





1 个附件 售价 大小 下载 时间

The.Enforcer.2022.720p.WEBRip.DD5.1.x264-CM.torrent 0 金币 20.99K 1043 次 1天前

#1楼
发帖时间:2022-09-23 18:08:31   |   回复数:0
游客组