topgood
一代宗师

[2022] [欧美] [惊悚] [WEB-1080P] 挖掘 Dig.2022.1080p.WEBRip.DD5.1.x264-CM 6.59GB

-->

帖子完整标题:挖掘 Dig.2022.1080p.WEBRip.DD5.1.x264-CM 6.59GB



◎标  题 挖掘
◎译  名 父女危机 / 聋哑父女求生记
◎片  名 Dig
◎年  代 2022
◎产  地 美国
◎类  别 惊悚
◎语  言 英语
◎IMDb链接 https://www.imdb.com/title/tt14830582/
◎豆瓣链接 https://movie.douban.com/subject/35763097/
◎片  长 88分钟

◎简  介
  A father and his daughter, suffering from major hearing loss, arrive at a construction site for work. They are soon taken hostage by a dangerous couple, and must work together to outsmart their captors and survive the night.

Video
ID : 1
Format : AVC
Format/Info : Advanced Video Codec
Format profile : [email protected]
Format settings : CABAC / 5 Ref Frames
Format settings, CABAC : Yes
Format settings, Reference frames : 5 frames
Codec ID : V_MPEG4/ISO/AVC
Duration : 1 h 29 min
Bit rate : 10.1 Mb/s
Width : 1 918 pixels
Height : 800 pixels
Display aspect ratio : 2.40:1
Frame rate mode : Constant
Frame rate : 23.976 (24000/1001/189150) FPS
Color space : YUV
Chroma subsampling : 4:2:0
Bit depth : 8 bits
Scan type : Progressive
Bits/(Pixel*Frame) : 0.276
Stream size : 6.35 GiB (96%)
Language : English
Default : Yes
Forced : No
Color range : Limited
Color primaries : BT.709
Transfer characteristics : BT.709
Matrix coefficients : BT.709

Audio
ID : 2
Format : AC-3
Format/Info : Audio Coding 3
Commercial name : Dolby Digital
Codec ID : A_AC3
Duration : 1 h 29 min
Bit rate mode : Constant
Bit rate : 384 kb/s
Channel(s) : 6 channels
Channel layout : L R C LFE Ls Rs
Sampling rate : 48.0 kHz
Frame rate : 31.250 FPS (1536 SPF)
Compression mode : Lossy
Stream size : 246 MiB (4%)
Language : English
Service kind : Complete Main
Default : Yes
Forced : No

Text #1
ID : 3
Format : UTF-8
Codec ID : S_TEXT/UTF8
Codec ID/Info : UTF-8 Plain Text
Duration : 1 h 26 min
Bit rate : 79 b/s
Frame rate : 0.295 FPS
Count of elements : 1535
Stream size : 50.4 KiB (0%)
Title : SDH
Language : English
Default : No
Forced : No

Text #2
ID : 4
Format : UTF-8
Codec ID : S_TEXT/UTF8
Codec ID/Info : UTF-8 Plain Text
Duration : 1 h 26 min
Bit rate : 70 b/s
Frame rate : 0.262 FPS
Count of elements : 1364
Stream size : 44.5 KiB (0%)
Language : English
Default : No
Forced : No

Menu
00:00:00.000 : en:Chapter 01
00:09:12.135 : en:Chapter 02
00:25:25.734 : en:Chapter 03
00:38:35.982 : en:Chapter 04
00:54:05.537 : en:Chapter 05
01:10:00.700 : en:Chapter 06
01:26:29.022 : en:Chapter 07





1 个附件 售价 大小 下载 时间

Dig.2022.1080p.WEBRip.DD5.1.x264-CM.torrent 0 金币 17.07K 609 次 1天前

#1楼
发帖时间:2022-09-23 18:11:56   |   回复数:0
游客组