squallzhao
一代宗师

[更 早] [其它] [科幻] [BD-1080P] 裸爱 Panic.1982.DUBBED.1080p.BluRay.x264-FREEMAN 10.01GB

-->

帖子完整标题:裸爱 Panic.1982.DUBBED.1080p.BluRay.x264-FREEMAN 10.01GB



◎标  题 裸爱
◎译  名 Panic
◎片  名 Bakterion
◎年  代 1982
◎产  地 意大利 / 西班牙
◎类  别 科幻 / 恐怖
◎语  言 意大利语
◎上映日期 1982
◎IMDb评分 3.5/10 (722人评价)
◎IMDb链接 https://www.imdb.com/title/tt0075035/
◎豆瓣链接 https://movie.douban.com/subject/5053402/
◎片  长 Brazil: 90 分钟

◎标  签 意大利 / 露点 / 美女 / 美国电影 / 科幻 / 欧美 / 意大利电影 / 惊悚

◎简  介
    A scientist's experiment with a deadly bacteria goes awry and leaves him horribly deformed. The monstrous man then runs amok in his town.

Video
ID : 1
Format : AVC
Format/Info : Advanced Video Codec
Format profile : [email protected]
Format settings : CABAC / 4 Ref Frames
Format settings, CABAC : Yes
Format settings, Reference frames : 4 frames
Codec ID : V_MPEG4/ISO/AVC
Duration : 1 h 33 min
Bit rate : 15.0 Mb/s
Width : 1 800 pixels
Height : 1 080 pixels
Display aspect ratio : 5:3
Frame rate mode : Constant
Frame rate : 24.000 FPS
Color space : YUV
Chroma subsampling : 4:2:0
Bit depth : 8 bits
Scan type : Progressive
Bits/(Pixel*Frame) : 0.322
Stream size : 9.77 GiB (98%)
Writing library : x264 core 164 r3101 b093bbe
Encoding settings : cabac=1 / ref=4 / deblock=1:-3:-3 / analyse=0x3:0x133 / me=umh / subme=9 / psy=1 / psy_rd=1.00:0.00 / mixed_ref=1 / me_range=16 / chroma_me=1 / trellis=2 / 8x8dct=1 / cqm=0 / deadzone=21,11 / fast_pskip=0 / chroma_qp_offset=-2 / threads=24 / lookahead_threads=2 / sliced_threads=0 / nr=0 / decimate=1 / interlaced=0 / bluray_compat=0 / constrained_intra=0 / bframes=3 / b_pyramid=2 / b_adapt=2 / b_bias=0 / direct=3 / weightb=1 / open_gop=0 / weightp=2 / keyint=250 / keyint_min=24 / scenecut=40 / intra_refresh=0 / rc_lookahead=60 / rc=crf / mbtree=1 / crf=17.0 / qcomp=0.60 / qpmin=0 / qpmax=69 / qpstep=4 / ip_ratio=1.40 / aq=3:0.60
Default : Yes
Forced : No
Color range : Limited
Matrix coefficients : BT.709

Audio
ID : 2
Format : FLAC
Format/Info : Free Lossless Audio Codec
Codec ID : A_FLAC
Duration : 1 h 33 min
Bit rate mode : Variable
Bit rate : 355 kb/s
Channel(s) : 2 channels
Channel layout : L R
Sampling rate : 48.0 kHz
Frame rate : 11.719 FPS (4096 SPF)
Bit depth : 16 bits
Compression mode : Lossless
Stream size : 237 MiB (2%)
Writing library : libFLAC 1.2.1 (UTC 2007-09-17)
Language : English
Default : Yes
Forced : No

Text
ID : 3
Format : PGS
Muxing mode : zlib
Codec ID : S_HDMV/PGS
Codec ID/Info : Picture based subtitle format used on BDs/HD-DVDs
Duration : 1 h 28 min
Bit rate : 8 149 b/s
Count of elements : 1484
Stream size : 5.13 MiB (0%)
Language : German
Default : No
Forced : No

Menu
00:00:00.000 : en:00:00:00.000
00:03:14.542 : en:00:03:14.542
00:05:39.292 : en:00:05:39.292
00:09:12.750 : en:00:09:12.750
00:14:26.042 : en:00:14:26.042
00:19:28.208 : en:00:19:28.208
00:22:43.875 : en:00:22:43.875
00:29:45.208 : en:00:29:45.208
00:34:17.583 : en:00:34:17.583
00:36:22.750 : en:00:36:22.750
00:44:32.708 : en:00:44:32.708
00:49:14.083 : en:00:49:14.083
00:53:31.500 : en:00:53:31.500
00:58:30.708 : en:00:58:30.708
01:04:15.667 : en:01:04:15.667
01:07:35.250 : en:01:07:35.250
01:10:46.708 : en:01:10:46.708
01:16:17.250 : en:01:16:17.250
01:23:17.208 : en:01:23:17.208
01:30:57.000 : en:01:30:57.000





1 个附件 售价 大小 下载 时间

Panic.1982.DUBBED.1080p.BluRay.x264-FREEMAN.torrent 0 金币 13.19K 3914 次 2月前

#1楼
发帖时间:2022-11-28 08:31:28   |   回复数:1
亚瑟王
一派掌门
谢谢楼主分享
2月前 #2楼
游客组