squallzhao
一代宗师

[2019] [其它] [科幻] [4K-原盘] 星际探索 Ad.Astra.2019.PROPER.2160p.BluRay.REMUX.HEVC.DTS-HD.MA.TrueHD.7.1.Atmos-FGT

-->

帖子完整标题:星际探索 Ad.Astra.2019.PROPER.2160p.BluRay.REMUX.HEVC.DTS-HD.MA.TrueHD.7.1.Atmos-FGT 53.48GB



◎标  题 星际探索
◎译  名 星际任务(港) / 星际救援(台) / 星际探险
◎片  名 Ad Astra
◎年  代 2019
◎产  地 美国 / 巴西 / 中国大陆
◎类  别 科幻 / 冒险
◎语  言 英语 / 挪威语
◎上映日期 2019-12-05(中国大陆) / 2019-08-29(威尼斯电影节) / 2019-09-20(美国)
◎IMDb评分 6.5/10 (218401人评价)
◎IMDb链接 https://www.imdb.com/title/tt2935510/
◎豆瓣评分 6.8/10 (109296人评价)
◎豆瓣链接 https://movie.douban.com/subject/24716039/
◎片  长 124分钟
◎导  演 詹姆斯·格雷 James Gray
◎编  剧 詹姆斯·格雷 James Gray
      伊桑·格罗斯 Ethan Gross
◎演  员 布拉德·皮特 Brad Pitt
      汤米·李·琼斯 Tommy Lee Jones
      丽芙·泰勒 Liv Tyler
      鲁丝·内伽 Ruth Negga
      唐纳德·萨瑟兰 Donald Sutherland
      劳恩·迪恩 Loren Dean
      唐尼·科沙瓦茨 Donnie Keshawarz
      肖恩·布莱克默 Sean Blakemore
      鲍比·内什 Bobby Nish
      丽莎盖伊·汉密尔顿 LisaGay Hamilton
      约翰·芬 John Finn
      约翰·奥提兹 John Ortiz
      弗雷达·福斯·沈 Freda Foh Shen
      凯拉·亚当斯 Kayla Adams
      拉维·卡普尔 Ravi Kapoor
      金伯莉·伊丽丝 Kimberly Elise
      埃莉莎·佩里 Elisa Perry
      丹尼尔·萨乌利 Daniel Sauli
      吉米·希尔兹 Kimmy Shields
      库纳尔·杜德赫克 Kunal Dudheker
      格雷格·布瑞克 Greg Bryk
      艾莉森·瑞德 Alyson Reed
      莎莎·康普 Sasha Compère
      娜塔莎·雷昂 Natasha Lyonne
      洛雷尔·伯德·多夫曼 Lorell Bird Dorfman
      哈尔茨卡·库扎 Halszka Kuza
      希拉·M·洛克哈特 Sheila M. Lockhart
      马洛里·露 Mallory Low
      安妮·麦克代尼尔斯 Anne McDaniels
      珍·莫里洛 Jen Morillo
      罗切尔·罗斯 Rochelle Rose
      瓦莱丽·罗斯 Valeri Ross
      杰米·肯尼迪 Jamie Kennedy
      魏苒 Ran Wei
      马克·卡西米尔·戴妮奇斯 Mark Casimir Dyniewicz
      巴亚尔多·德·穆古拉 Bayardo De Murguia

◎标  签 科幻 / 太空 / 美国 / 宇宙 / 星际 / 2019 / 冒险 / 文艺

◎简  介
    一名轻度自闭的航天工程师罗伊,他的父亲在20年前离开地球前往海王星,寻找外星智慧生物。不料任务失败,有去无回。而罗伊此次也要飞越太阳系,找到父亲,并查清当年失败的原因。

Video
ID : 1
ID in the original source medium : 4113 (0x1011)
Format : HEVC
Format/Info : High Efficiency Video Coding
Format profile : Main [email protected]@High
HDR format : SMPTE ST 2086, HDR10 compatible
Codec ID : V_MPEGH/ISO/HEVC
Duration : 2 h 3 min
Bit rate : 47.9 Mb/s
Width : 3 840 pixels
Height : 2 160 pixels
Display aspect ratio : 16:9
Frame rate mode : Constant
Frame rate : 23.976 (24000/1001/189150) FPS
Color space : YUV
Chroma subsampling : 4:2:0 (Type 2)
Bit depth : 10 bits
Bits/(Pixel*Frame) : 0.241
Stream size : 41.2 GiB (77%)
Language : English
Default : No
Forced : No
Color range : Limited
Color primaries : BT.2020
Transfer characteristics : PQ
Matrix coefficients : BT.2020 non-constant
Mastering display color primaries : Display P3
Mastering display luminance : min: 0.0050 cd/m2, max: 1000 cd/m2
Original source medium : Blu-ray

Audio #1
ID : 2
ID in the original source medium : 4352 (0x1100)
Format : MLP FBA 16-ch
Format/Info : Meridian Lossless Packing FBA with 16-channel presentation
Commercial name : Dolby TrueHD with Dolby Atmos
Codec ID : A_TRUEHD
Duration : 2 h 3 min
Bit rate mode : Variable
Bit rate : 3 388 kb/s
Maximum bit rate : 6 165 kb/s
Channel(s) : 8 channels
Channel layout : L R C LFE Ls Rs Lb Rb
Sampling rate : 48.0 kHz
Frame rate : 1 200.000 FPS (40 SPF)
Bit depth : 24 bits
Compression mode : Lossless
Stream size : 2.91 GiB (5%)
Title : TrueHD 7.1 Atmos
Language : English
Default : Yes
Forced : No
Original source medium : Blu-ray
Number of dynamic objects : 13
Bed channel count : 1 channel
Bed channel configuration : LFE

Audio #2
ID : 3
Format : DTS XLL
Format/Info : Digital Theater Systems
Commercial name : DTS-HD Master Audio
Codec ID : A_DTS
Duration : 2 h 3 min
Bit rate mode : Variable
Bit rate : 3 627 kb/s
Channel(s) : 8 channels
Channel layout : C L R LFE Lb Rb Lss Rss
Sampling rate : 48.0 kHz
Frame rate : 93.750 FPS (512 SPF)
Bit depth : 24 bits
Compression mode : Lossless
Stream size : 3.12 GiB (6%)
Title : DTS-HD MA 7.1
Language : English
Default : No
Forced : No

Audio #3
ID : 4
ID in the original source medium : 4352 (0x1100)
Format : AC-3
Format/Info : Audio Coding 3
Commercial name : Dolby Digital
Codec ID : A_AC3
Duration : 2 h 3 min
Bit rate mode : Constant
Bit rate : 640 kb/s
Channel(s) : 6 channels
Channel layout : L R C LFE Ls Rs
Sampling rate : 48.0 kHz
Frame rate : 31.250 FPS (1536 SPF)
Compression mode : Lossy
Stream size : 563 MiB (1%)
Title : DD 5.1
Language : English
Service kind : Complete Main
Default : No
Forced : No
Original source medium : Blu-ray

Audio #4
ID : 5
ID in the original source medium : 4353 (0x1101)
Format : AC-3
Format/Info : Audio Coding 3
Commercial name : Dolby Digital
Codec ID : A_AC3
Duration : 2 h 3 min
Bit rate mode : Constant
Bit rate : 448 kb/s
Channel(s) : 6 channels
Channel layout : L R C LFE Ls Rs
Sampling rate : 48.0 kHz
Frame rate : 31.250 FPS (1536 SPF)
Compression mode : Lossy
Stream size : 394 MiB (1%)
Title : DD 5.1
Language : English
Service kind : Complete Main
Default : No
Forced : No
Original source medium : Blu-ray

Audio #5
ID : 6
ID in the original source medium : 4354 (0x1102)
Format : AC-3
Format/Info : Audio Coding 3
Commercial name : Dolby Digital
Codec ID : A_AC3
Duration : 2 h 3 min
Bit rate mode : Constant
Bit rate : 448 kb/s
Channel(s) : 6 channels
Channel layout : L R C LFE Ls Rs
Sampling rate : 48.0 kHz
Frame rate : 31.250 FPS (1536 SPF)
Compression mode : Lossy
Stream size : 394 MiB (1%)
Title : DD 5.1
Language : Spanish
Service kind : Complete Main
Default : No
Forced : No
Original source medium : Blu-ray

Audio #6
ID : 7
ID in the original source medium : 4355 (0x1103)
Format : DTS
Format/Info : Digital Theater Systems
Codec ID : A_DTS
Duration : 2 h 3 min
Bit rate mode : Constant
Bit rate : 768 kb/s
Channel(s) : 6 channels
Channel layout : C L R Ls Rs LFE
Sampling rate : 48.0 kHz
Frame rate : 93.750 FPS (512 SPF)
Bit depth : 24 bits
Compression mode : Lossy
Stream size : 676 MiB (1%)
Title : DTS 5.1
Language : French
Default : No
Forced : No
Original source medium : Blu-ray

Audio #7
ID : 8
ID in the original source medium : 4356 (0x1104)
Format : DTS
Format/Info : Digital Theater Systems
Codec ID : A_DTS
Duration : 2 h 3 min
Bit rate mode : Constant
Bit rate : 768 kb/s
Channel(s) : 6 channels
Channel layout : C L R Ls Rs LFE
Sampling rate : 48.0 kHz
Frame rate : 93.750 FPS (512 SPF)
Bit depth : 24 bits
Compression mode : Lossy
Stream size : 676 MiB (1%)
Title : DTS 5.1
Language : Spanish
Default : No
Forced : No
Original source medium : Blu-ray

Audio #8
ID : 9
ID in the original source medium : 4357 (0x1105)
Format : DTS
Format/Info : Digital Theater Systems
Codec ID : A_DTS
Duration : 2 h 3 min
Bit rate mode : Constant
Bit rate : 768 kb/s
Channel(s) : 6 channels
Channel layout : C L R Ls Rs LFE
Sampling rate : 48.0 kHz
Frame rate : 93.750 FPS (512 SPF)
Bit depth : 24 bits
Compression mode : Lossy
Stream size : 676 MiB (1%)
Title : DTS 5.1
Language : German
Default : No
Forced : No
Original source medium : Blu-ray

Audio #9
ID : 10
ID in the original source medium : 4358 (0x1106)
Format : DTS
Format/Info : Digital Theater Systems
Codec ID : A_DTS
Duration : 2 h 3 min
Bit rate mode : Constant
Bit rate : 768 kb/s
Channel(s) : 6 channels
Channel layout : C L R Ls Rs LFE
Sampling rate : 48.0 kHz
Frame rate : 93.750 FPS (512 SPF)
Bit depth : 24 bits
Compression mode : Lossy
Stream size : 676 MiB (1%)
Title : DTS 5.1
Language : Italian
Default : No
Forced : No
Original source medium : Blu-ray

Audio #10
ID : 11
ID in the original source medium : 4359 (0x1107)
Format : DTS
Format/Info : Digital Theater Systems
Codec ID : A_DTS
Duration : 2 h 3 min
Bit rate mode : Constant
Bit rate : 768 kb/s
Channel(s) : 6 channels
Channel layout : C L R Ls Rs LFE
Sampling rate : 48.0 kHz
Frame rate : 93.750 FPS (512 SPF)
Bit depth : 24 bits
Compression mode : Lossy
Stream size : 676 MiB (1%)
Title : DTS 5.1
Language : Japanese
Default : No
Forced : No
Original source medium : Blu-ray

Audio #11
ID : 12
ID in the original source medium : 4360 (0x1108)
Format : AC-3
Format/Info : Audio Coding 3
Commercial name : Dolby Digital
Codec ID : A_AC3
Duration : 2 h 3 min
Bit rate mode : Constant
Bit rate : 448 kb/s
Channel(s) : 6 channels
Channel layout : L R C LFE Ls Rs
Sampling rate : 48.0 kHz
Frame rate : 31.250 FPS (1536 SPF)
Compression mode : Lossy
Stream size : 394 MiB (1%)
Title : DD 5.1
Language : Czech
Service kind : Complete Main
Default : No
Forced : No
Original source medium : Blu-ray

Audio #12
ID : 13
ID in the original source medium : 4361 (0x1109)
Format : AC-3
Format/Info : Audio Coding 3
Commercial name : Dolby Digital
Codec ID : A_AC3
Duration : 2 h 3 min
Bit rate mode : Constant
Bit rate : 448 kb/s
Channel(s) : 6 channels
Channel layout : L R C LFE Ls Rs
Sampling rate : 48.0 kHz
Frame rate : 31.250 FPS (1536 SPF)
Compression mode : Lossy
Stream size : 394 MiB (1%)
Title : DD 5.1
Language : Hungarian
Service kind : Complete Main
Default : No
Forced : No
Original source medium : Blu-ray

Audio #13
ID : 14
ID in the original source medium : 4362 (0x110A)
Format : AC-3
Format/Info : Audio Coding 3
Commercial name : Dolby Digital
Codec ID : A_AC3
Duration : 2 h 3 min
Bit rate mode : Constant
Bit rate : 448 kb/s
Channel(s) : 6 channels
Channel layout : L R C LFE Ls Rs
Sampling rate : 48.0 kHz
Frame rate : 31.250 FPS (1536 SPF)
Compression mode : Lossy
Stream size : 394 MiB (1%)
Title : DD 5.1
Language : Polish
Service kind : Complete Main
Default : No
Forced : No
Original source medium : Blu-ray

Audio #14
ID : 15
ID in the original source medium : 4363 (0x110B)
Format : AC-3
Format/Info : Audio Coding 3
Commercial name : Dolby Digital
Codec ID : A_AC3
Duration : 2 h 3 min
Bit rate mode : Constant
Bit rate : 224 kb/s
Channel(s) : 2 channels
Channel layout : L R
Sampling rate : 48.0 kHz
Frame rate : 31.250 FPS (1536 SPF)
Compression mode : Lossy
Stream size : 197 MiB (0%)
Title : DD 2.0
Language : English
Service kind : Complete Main
Default : No
Forced : No
Original source medium : Blu-ray

Text #1
ID : 16
Format : UTF-8
Codec ID : S_TEXT/UTF8
Codec ID/Info : UTF-8 Plain Text
Duration : 1 h 50 min
Bit rate : 47 b/s
Frame rate : 0.189 FPS
Count of elements : 1253
Stream size : 38.5 KiB (0%)
Language : English
Default : Yes
Forced : No

Text #2
ID : 17
Format : UTF-8
Codec ID : S_TEXT/UTF8
Codec ID/Info : UTF-8 Plain Text
Duration : 1 h 50 min
Bit rate : 50 b/s
Frame rate : 0.209 FPS
Count of elements : 1386
Stream size : 41.1 KiB (0%)
Title : SDH
Language : English
Default : No
Forced : No

Text #3
ID : 18
ID in the original source medium : 4768 (0x12A0)
Format : PGS
Muxing mode : zlib
Codec ID : S_HDMV/PGS
Codec ID/Info : Picture based subtitle format used on BDs/HD-DVDs
Duration : 1 h 50 min
Bit rate : 36.0 kb/s
Frame rate : 0.419 FPS
Count of elements : 2786
Stream size : 28.5 MiB (0%)
Language : English
Default : No
Forced : No
Original source medium : Blu-ray

Text #4
ID : 19
ID in the original source medium : 4769 (0x12A1)
Format : PGS
Muxing mode : zlib
Codec ID : S_HDMV/PGS
Codec ID/Info : Picture based subtitle format used on BDs/HD-DVDs
Duration : 2 h 2 min
Bit rate : 25.2 kb/s
Frame rate : 0.288 FPS
Count of elements : 2106
Stream size : 22.0 MiB (0%)
Language : Spanish
Default : No
Forced : No
Original source medium : Blu-ray

Text #5
ID : 20
ID in the original source medium : 4770 (0x12A2)
Format : PGS
Muxing mode : zlib
Codec ID : S_HDMV/PGS
Codec ID/Info : Picture based subtitle format used on BDs/HD-DVDs
Duration : 2 h 2 min
Bit rate : 23.9 kb/s
Frame rate : 0.309 FPS
Count of elements : 2264
Stream size : 20.9 MiB (0%)
Language : French
Default : No
Forced : No
Original source medium : Blu-ray

Text #6
ID : 21
ID in the original source medium : 4770 (0x12A2)
Format : PGS
Muxing mode : zlib
Codec ID : S_HDMV/PGS
Codec ID/Info : Picture based subtitle format used on BDs/HD-DVDs
Duration : 2 h 2 min
Bit rate : 1 254 b/s
Frame rate : 0.012 FPS
Count of elements : 88
Stream size : 1.09 MiB (0%)
Language : French
Default : No
Forced : No
Original source medium : Blu-ray

Text #7
ID : 22
ID in the original source medium : 4771 (0x12A3)
Format : PGS
Muxing mode : zlib
Codec ID : S_HDMV/PGS
Codec ID/Info : Picture based subtitle format used on BDs/HD-DVDs
Duration : 2 h 1 min
Bit rate : 25.7 kb/s
Frame rate : 0.299 FPS
Count of elements : 2186
Stream size : 22.4 MiB (0%)
Language : Spanish
Default : No
Forced : No
Original source medium : Blu-ray

Text #8
ID : 23
ID in the original source medium : 4772 (0x12A4)
Format : PGS
Muxing mode : zlib
Codec ID : S_HDMV/PGS
Codec ID/Info : Picture based subtitle format used on BDs/HD-DVDs
Duration : 2 h 1 min
Bit rate : 22.8 kb/s
Frame rate : 0.233 FPS
Count of elements : 1706
Stream size : 19.9 MiB (0%)
Language : Danish
Default : No
Forced : No
Original source medium : Blu-ray

Text #9
ID : 24
ID in the original source medium : 4773 (0x12A5)
Format : PGS
Muxing mode : zlib
Codec ID : S_HDMV/PGS
Codec ID/Info : Picture based subtitle format used on BDs/HD-DVDs
Duration : 2 h 1 min
Bit rate : 21.8 kb/s
Frame rate : 0.257 FPS
Count of elements : 1876
Stream size : 19.0 MiB (0%)
Language : Dutch
Default : No
Forced : No
Original source medium : Blu-ray

Text #10
ID : 25
ID in the original source medium : 4774 (0x12A6)
Format : PGS
Muxing mode : zlib
Codec ID : S_HDMV/PGS
Codec ID/Info : Picture based subtitle format used on BDs/HD-DVDs
Duration : 2 h 2 min
Bit rate : 24.2 kb/s
Frame rate : 0.294 FPS
Count of elements : 2156
Stream size : 21.2 MiB (0%)
Language : Finnish
Default : No
Forced : No
Original source medium : Blu-ray

Text #11
ID : 26
ID in the original source medium : 4775 (0x12A7)
Format : PGS
Muxing mode : zlib
Codec ID : S_HDMV/PGS
Codec ID/Info : Picture based subtitle format used on BDs/HD-DVDs
Duration : 2 h 1 min
Bit rate : 28.5 kb/s
Frame rate : 0.314 FPS
Count of elements : 2298
Stream size : 24.8 MiB (0%)
Language : German
Default : No
Forced : No
Original source medium : Blu-ray

Text #12
ID : 27
ID in the original source medium : 4775 (0x12A7)
Format : PGS
Muxing mode : zlib
Codec ID : S_HDMV/PGS
Codec ID/Info : Picture based subtitle format used on BDs/HD-DVDs
Duration : 2 h 1 min
Bit rate : 250 b/s
Frame rate : 0.002 FPS
Count of elements : 18
Stream size : 223 KiB (0%)
Language : German
Default : No
Forced : No
Original source medium : Blu-ray

Text #13
ID : 28
ID in the original source medium : 4776 (0x12A8)
Format : PGS
Muxing mode : zlib
Codec ID : S_HDMV/PGS
Codec ID/Info : Picture based subtitle format used on BDs/HD-DVDs
Duration : 2 h 2 min
Bit rate : 26.6 kb/s
Frame rate : 0.293 FPS
Count of elements : 2146
Stream size : 23.3 MiB (0%)
Language : Italian
Default : No
Forced : No
Original source medium : Blu-ray

Text #14
ID : 29
ID in the original source medium : 4776 (0x12A8)
Format : PGS
Muxing mode : zlib
Codec ID : S_HDMV/PGS
Codec ID/Info : Picture based subtitle format used on BDs/HD-DVDs
Duration : 2 h 2 min
Bit rate : 377 b/s
Frame rate : 0.004 FPS
Count of elements : 30
Stream size : 338 KiB (0%)
Language : Italian
Default : No
Forced : No
Original source medium : Blu-ray

Text #15
ID : 30
ID in the original source medium : 4777 (0x12A9)
Format : PGS
Muxing mode : zlib
Codec ID : S_HDMV/PGS
Codec ID/Info : Picture based subtitle format used on BDs/HD-DVDs
Duration : 2 h 2 min
Bit rate : 16.8 kb/s
Frame rate : 0.288 FPS
Count of elements : 2105
Stream size : 14.7 MiB (0%)
Language : Japanese
Default : No
Forced : No
Original source medium : Blu-ray

Text #16
ID : 31
ID in the original source medium : 4778 (0x12AA)
Format : PGS
Muxing mode : zlib
Codec ID : S_HDMV/PGS
Codec ID/Info : Picture based subtitle format used on BDs/HD-DVDs
Duration : 1 h 27 min
Bit rate : 368 b/s
Frame rate : 0.006 FPS
Count of elements : 32
Stream size : 235 KiB (0%)
Language : Japanese
Default : No
Forced : No
Original source medium : Blu-ray

Text #17
ID : 32
ID in the original source medium : 4778 (0x12AA)
Format : PGS
Muxing mode : zlib
Codec ID : S_HDMV/PGS
Codec ID/Info : Picture based subtitle format used on BDs/HD-DVDs
Duration : 1 h 27 min
Bit rate : 368 b/s
Frame rate : 0.006 FPS
Count of elements : 32
Stream size : 235 KiB (0%)
Language : Japanese
Default : No
Forced : No
Original source medium : Blu-ray

Text #18
ID : 33
ID in the original source medium : 4779 (0x12AB)
Format : PGS
Muxing mode : zlib
Codec ID : S_HDMV/PGS
Codec ID/Info : Picture based subtitle format used on BDs/HD-DVDs
Duration : 2 h 2 min
Bit rate : 25.6 kb/s
Frame rate : 0.294 FPS
Count of elements : 2154
Stream size : 22.3 MiB (0%)
Language : Norwegian
Default : No
Forced : No
Original source medium : Blu-ray

Text #19
ID : 34
ID in the original source medium : 4780 (0x12AC)
Format : PGS
Muxing mode : zlib
Codec ID : S_HDMV/PGS
Codec ID/Info : Picture based subtitle format used on BDs/HD-DVDs
Duration : 2 h 1 min
Bit rate : 25.3 kb/s
Frame rate : 0.293 FPS
Count of elements : 2146
Stream size : 22.0 MiB (0%)
Language : Swedish
Default : No
Forced : No
Original source medium : Blu-ray

Text #20
ID : 35
ID in the original source medium : 4781 (0x12AD)
Format : PGS
Muxing mode : zlib
Codec ID : S_HDMV/PGS
Codec ID/Info : Picture based subtitle format used on BDs/HD-DVDs
Duration : 2 h 2 min
Bit rate : 22.6 kb/s
Frame rate : 0.294 FPS
Count of elements : 2154
Stream size : 19.7 MiB (0%)
Language : Czech
Default : No
Forced : No
Original source medium : Blu-ray

Text #21
ID : 36
ID in the original source medium : 4782 (0x12AE)
Format : PGS
Muxing mode : zlib
Codec ID : S_HDMV/PGS
Codec ID/Info : Picture based subtitle format used on BDs/HD-DVDs
Duration : 2 h 2 min
Bit rate : 26.5 kb/s
Frame rate : 0.293 FPS
Count of elements : 2148
Stream size : 23.2 MiB (0%)
Language : Hungarian
Default : No
Forced : No
Original source medium : Blu-ray

Text #22
ID : 37
ID in the original source medium : 4782 (0x12AE)
Format : PGS
Muxing mode : zlib
Codec ID : S_HDMV/PGS
Codec ID/Info : Picture based subtitle format used on BDs/HD-DVDs
Duration : 2 h 1 min
Bit rate : 288 b/s
Frame rate : 0.004 FPS
Count of elements : 30
Stream size : 257 KiB (0%)
Language : Hungarian
Default : No
Forced : No
Original source medium : Blu-ray

Text #23
ID : 38
ID in the original source medium : 4783 (0x12AF)
Format : PGS
Muxing mode : zlib
Codec ID : S_HDMV/PGS
Codec ID/Info : Picture based subtitle format used on BDs/HD-DVDs
Duration : 2 h 1 min
Bit rate : 16.5 kb/s
Frame rate : 0.294 FPS
Count of elements : 2152
Stream size : 14.4 MiB (0%)
Language : Korean
Default : No
Forced : No
Original source medium : Blu-ray

Text #24
ID : 39
ID in the original source medium : 4784 (0x12B0)
Format : PGS
Muxing mode : zlib
Codec ID : S_HDMV/PGS
Codec ID/Info : Picture based subtitle format used on BDs/HD-DVDs
Duration : 2 h 2 min
Bit rate : 23.9 kb/s
Frame rate : 0.285 FPS
Count of elements : 2084
Stream size : 20.9 MiB (0%)
Language : Polish
Default : No
Forced : No
Original source medium : Blu-ray

Text #25
ID : 40
ID in the original source medium : 4785 (0x12B1)
Format : PGS
Muxing mode : zlib
Codec ID : S_HDMV/PGS
Codec ID/Info : Picture based subtitle format used on BDs/HD-DVDs
Duration : 1 h 8 min
Bit rate : 253 b/s
Frame rate : 0.004 FPS
Count of elements : 18
Stream size : 128 KiB (0%)
Language : Polish
Default : No
Forced : No
Original source medium : Blu-ray

Text #26
ID : 41
ID in the original source medium : 4785 (0x12B1)
Format : PGS
Muxing mode : zlib
Codec ID : S_HDMV/PGS
Codec ID/Info : Picture based subtitle format used on BDs/HD-DVDs
Duration : 1 h 8 min
Bit rate : 253 b/s
Frame rate : 0.004 FPS
Count of elements : 18
Stream size : 128 KiB (0%)
Language : Polish
Default : No
Forced : No
Original source medium : Blu-ray

Text #27
ID : 42
ID in the original source medium : 4786 (0x12B2)
Format : PGS
Muxing mode : zlib
Codec ID : S_HDMV/PGS
Codec ID/Info : Picture based subtitle format used on BDs/HD-DVDs
Duration : 1 h 53 min
Bit rate : 72.4 kb/s
Frame rate : 0.576 FPS
Count of elements : 3914
Stream size : 58.6 MiB (0%)
Language : English
Default : No
Forced : No
Original source medium : Blu-ray

Text #28
ID : 43
ID in the original source medium : 4787 (0x12B3)
Format : PGS
Muxing mode : zlib
Codec ID : S_HDMV/PGS
Codec ID/Info : Picture based subtitle format used on BDs/HD-DVDs
Duration : 2 h 2 min
Bit rate : 64.2 kb/s
Frame rate : 0.529 FPS
Count of elements : 3896
Stream size : 56.4 MiB (0%)
Language : Spanish
Default : No
Forced : No
Original source medium : Blu-ray

Text #29
ID : 44
ID in the original source medium : 4788 (0x12B4)
Format : PGS
Muxing mode : zlib
Codec ID : S_HDMV/PGS
Codec ID/Info : Picture based subtitle format used on BDs/HD-DVDs
Duration : 2 h 2 min
Bit rate : 60.7 kb/s
Frame rate : 0.529 FPS
Count of elements : 3896
Stream size : 53.3 MiB (0%)
Language : French
Default : No
Forced : No
Original source medium : Blu-ray

Text #30
ID : 45
ID in the original source medium : 4789 (0x12B5)
Format : PGS
Muxing mode : zlib
Codec ID : S_HDMV/PGS
Codec ID/Info : Picture based subtitle format used on BDs/HD-DVDs
Duration : 2 h 2 min
Bit rate : 62.7 kb/s
Frame rate : 0.529 FPS
Count of elements : 3896
Stream size : 55.1 MiB (0%)
Language : Spanish
Default : No
Forced : No
Original source medium : Blu-ray

Text #31
ID : 46
ID in the original source medium : 4790 (0x12B6)
Format : PGS
Muxing mode : zlib
Codec ID : S_HDMV/PGS
Codec ID/Info : Picture based subtitle format used on BDs/HD-DVDs
Duration : 2 h 2 min
Bit rate : 70.6 kb/s
Frame rate : 0.529 FPS
Count of elements : 3896
Stream size : 62.0 MiB (0%)
Language : German
Default : No
Forced : No
Original source medium : Blu-ray

Text #32
ID : 47
ID in the original source medium : 4791 (0x12B7)
Format : PGS
Muxing mode : zlib
Codec ID : S_HDMV/PGS
Codec ID/Info : Picture based subtitle format used on BDs/HD-DVDs
Duration : 2 h 2 min
Bit rate : 65.3 kb/s
Frame rate : 0.529 FPS
Count of elements : 3901
Stream size : 57.4 MiB (0%)
Language : Italian
Default : No
Forced : No
Original source medium : Blu-ray

Text #33
ID : 48
ID in the original source medium : 4792 (0x12B8)
Format : PGS
Muxing mode : zlib
Codec ID : S_HDMV/PGS
Codec ID/Info : Picture based subtitle format used on BDs/HD-DVDs
Duration : 2 h 2 min
Bit rate : 38.5 kb/s
Frame rate : 0.393 FPS
Count of elements : 2898
Stream size : 33.8 MiB (0%)
Language : Japanese
Default : No
Forced : No
Original source medium : Blu-ray

Text #34
ID : 49
ID in the original source medium : 4793 (0x12B9)
Format : PGS
Muxing mode : zlib
Codec ID : S_HDMV/PGS
Codec ID/Info : Picture based subtitle format used on BDs/HD-DVDs
Duration : 2 h 2 min
Bit rate : 40.5 kb/s
Frame rate : 0.529 FPS
Count of elements : 3901
Stream size : 35.6 MiB (0%)
Language : Korean
Default : No
Forced : No
Original source medium : Blu-ray

Text #35
ID : 50
ID in the original source medium : 4794 (0x12BA)
Format : PGS
Muxing mode : zlib
Codec ID : S_HDMV/PGS
Codec ID/Info : Picture based subtitle format used on BDs/HD-DVDs
Duration : 2 h 1 min
Bit rate : 438 b/s
Frame rate : 0.005 FPS
Count of elements : 38
Stream size : 392 KiB (0%)
Language : Spanish
Default : No
Forced : No
Original source medium : Blu-ray

Text #36
ID : 51
ID in the original source medium : 4794 (0x12BA)
Format : PGS
Muxing mode : zlib
Codec ID : S_HDMV/PGS
Codec ID/Info : Picture based subtitle format used on BDs/HD-DVDs
Duration : 2 h 1 min
Bit rate : 438 b/s
Frame rate : 0.005 FPS
Count of elements : 38
Stream size : 392 KiB (0%)
Language : Spanish
Default : No
Forced : No
Original source medium : Blu-ray

Text #37
ID : 52
ID in the original source medium : 4795 (0x12BB)
Format : PGS
Muxing mode : zlib
Codec ID : S_HDMV/PGS
Codec ID/Info : Picture based subtitle format used on BDs/HD-DVDs
Duration : 2 h 1 min
Bit rate : 470 b/s
Frame rate : 0.005 FPS
Count of elements : 40
Stream size : 420 KiB (0%)
Language : Spanish
Default : No
Forced : No
Original source medium : Blu-ray

Text #38
ID : 53
ID in the original source medium : 4795 (0x12BB)
Format : PGS
Muxing mode : zlib
Codec ID : S_HDMV/PGS
Codec ID/Info : Picture based subtitle format used on BDs/HD-DVDs
Duration : 2 h 1 min
Bit rate : 470 b/s
Frame rate : 0.005 FPS
Count of elements : 40
Stream size : 420 KiB (0%)
Language : Spanish
Default : No
Forced : No
Original source medium : Blu-ray

Text #39
ID : 54
ID in the original source medium : 4796 (0x12BC)
Format : PGS
Muxing mode : zlib
Codec ID : S_HDMV/PGS
Codec ID/Info : Picture based subtitle format used on BDs/HD-DVDs
Duration : 1 h 40 min
Bit rate : 411 b/s
Frame rate : 0.006 FPS
Count of elements : 36
Stream size : 303 KiB (0%)
Language : Czech
Default : No
Forced : No
Original source medium : Blu-ray

Text #40
ID : 55
ID in the original source medium : 4796 (0x12BC)
Format : PGS
Muxing mode : zlib
Codec ID : S_HDMV/PGS
Codec ID/Info : Picture based subtitle format used on BDs/HD-DVDs
Duration : 1 h 40 min
Bit rate : 411 b/s
Frame rate : 0.006 FPS
Count of elements : 36
Stream size : 303 KiB (0%)
Language : Czech
Default : No
Forced : No
Original source medium : Blu-ray

Menu
00:00:00.000 : en:Chapter 01
00:04:22.428 : en:Chapter 02
00:08:48.694 : en:Chapter 03
00:16:25.776 : en:Chapter 04
00:22:33.643 : en:Chapter 05
00:30:08.598 : en:Chapter 06
00:35:08.272 : en:Chapter 07
00:40:33.347 : en:Chapter 08
00:44:45.391 : en:Chapter 09
00:48:56.808 : en:Chapter 10
00:53:51.645 : en:Chapter 11
00:56:43.775 : en:Chapter 12
01:01:31.646 : en:Chapter 13
01:07:23.748 : en:Chapter 14
01:12:12.119 : en:Chapter 15
01:16:59.114 : en:Chapter 16
01:21:34.806 : en:Chapter 17
01:24:42.619 : en:Chapter 18
01:31:16.345 : en:Chapter 19
01:36:26.864 : en:Chapter 20
01:40:59.303 : en:Chapter 21
01:46:26.588 : en:Chapter 22
01:49:59.884 : en:Chapter 23
01:53:18.208 : en:Chapter 24





1 个附件 售价 大小 下载 时间

Ad.Astra.2019.PROPER.2160p.BluRay.REMUX.HEVC.DTS-HD.MA.TrueHD.7.1.Atmos-FGT.torrent 0 金币 67.52K 1057 次 2月前

#1楼
发帖时间:2022-12-02 08:55:56   |   回复数:0
游客组