topgood
一代宗师

[2022] [韩国] [科幻] [BD-1080P] 外星+人 Alienoid.2022.KOREAN.1080p.BluRay.x264.DTS-HD.MA.5.1-NOGRP 17.26GB

-->

帖子完整标题:外星+人 Alienoid.2022.KOREAN.1080p.BluRay.x264.DTS-HD.MA.5.1-NOGRP 17.26GB



◎标  题 外星+人
◎译  名 外星+人1 / 외계인 / 시간의 칼 / Alien Part.1 / Alienoid / 祖宗膠戰外星人(港) / Alien + People: Part 1
◎片  名 외계+인 1부
◎年  代 2022
◎产  地 韩国
◎类  别 科幻 / 古装
◎语  言 韩语
◎上映日期 2022-07-20(韩国)
◎IMDb评分 6.7/10 (493人评价)
◎IMDb链接 https://www.imdb.com/title/tt20168564/
◎豆瓣链接 https://movie.douban.com/subject/34456011/
◎片  长 142分钟
◎导  演 崔东勋 Dong-hoon Choi
◎编  剧 崔东勋 Dong-hoon Choi
◎演  员 柳俊烈 Jun-yeol Ryu
      金宇彬 Woo-bin Kim
      金泰梨 Tae-ri Kim
      李荷妮 Ha-nui Lee
      赵祐镇 Woo-jin Jo
      廉晶雅 Jung-ah Yum
      苏志燮 Ji-seob So
      刘在明 Jae-myung Yoo
      金义城 Eui-sung Kim
      金灿亨 Kim Chan Hyung
      赵相庆 Sang-gyeong Jo

◎简  介
  该片讲述了道士们争夺传闻中神剑的高丽末期和外星人出没的2022年之间的时光之门被打开后,引发的异想天开的故事。

Video
ID : 1
Format : AVC
Format/Info : Advanced Video Codec
Format profile : [email protected]
Format settings : CABAC / 5 Ref Frames
Format settings, CABAC : Yes
Format settings, Reference frames : 5 frames
Codec ID : V_MPEG4/ISO/AVC
Duration : 2 h 22 min
Bit rate : 12.3 Mb/s
Width : 1 920 pixels
Height : 804 pixels
Display aspect ratio : 2.40:1
Frame rate mode : Constant
Frame rate : 23.976 (24000/1001/189150) FPS
Color space : YUV
Chroma subsampling : 4:2:0
Bit depth : 8 bits
Scan type : Progressive
Bits/(Pixel*Frame) : 0.333
Stream size : 12.3 GiB (71%)
Writing library : x264 core 157 r2938 2b00a84 [email protected] Mod
Encoding settings : cabac=1 / ref=5 / deblock=1:-3:-3 / analyse=0x3:0x133 / me=umh / subme=10 / psy=1 / psy_rd=1.05:0.00 / mixed_ref=1 / me_range=32 / chroma_me=1 / trellis=2 / 8x8dct=1 / cqm=0 / deadzone=21,11 / fast_pskip=0 / chroma_qp_offset=-2 / threads=12 / lookahead_threads=2 / sliced_threads=0 / nr=0 / decimate=0 / interlaced=0 / bluray_compat=0 / constrained_intra=0 / bframes=8 / b_pyramid=2 / b_adapt=2 / b_bias=0 / direct=3 / weightb=1 / open_gop=0 / weightp=2 / keyint=250 / keyint_min=24 / scenecut=40 / intra_refresh=0 / rc_lookahead=250 / rc=crf / mbtree=0 / crf=16.8 / qcomp=0.60 / qpmin=0 / qpmax=69 / qpstep=4 / vbv_maxrate=62500 / vbv_bufsize=78125 / crf_max=0.0 / nal_hrd=none / filler=0 / ip_ratio=1.30 / pb_ratio=1.20 / aq=3:0.80
Language : English
Default : No
Forced : No
Color range : Limited
Color primaries : BT.709
Matrix coefficients : BT.709

Audio #1
ID : 2
ID in the original source medium : 4352 (0x1100)
Format : DTS XLL
Format/Info : Digital Theater Systems
Commercial name : DTS-HD Master Audio
Codec ID : A_DTS
Duration : 2 h 22 min
Bit rate mode : Variable
Bit rate : 2 508 kb/s
Channel(s) : 6 channels
Channel layout : C L R Ls Rs LFE
Sampling rate : 48.0 kHz
Frame rate : 93.750 FPS (512 SPF)
Bit depth : 16 bits
Compression mode : Lossless
Stream size : 2.50 GiB (14%)
Title : DTS-HD MA 5.1
Language : Korean
Default : Yes
Forced : No
Original source medium : Blu-ray

Audio #2
ID : 3
ID in the original source medium : 4354 (0x1102)
Format : DTS XLL
Format/Info : Digital Theater Systems
Commercial name : DTS-HD Master Audio
Codec ID : A_DTS
Duration : 2 h 22 min
Bit rate mode : Variable
Bit rate : 2 476 kb/s
Channel(s) : 6 channels
Channel layout : C L R Ls Rs LFE
Sampling rate : 48.0 kHz
Frame rate : 93.750 FPS (512 SPF)
Bit depth : 16 bits
Compression mode : Lossless
Stream size : 2.47 GiB (14%)
Title : DTS-HD MA 5.1
Language : English
Default : No
Forced : No
Original source medium : Blu-ray

Text #1
ID : 4
Format : UTF-8
Codec ID : S_TEXT/UTF8
Codec ID/Info : UTF-8 Plain Text
Duration : 2 h 19 min
Bit rate : 40 b/s
Frame rate : 0.166 FPS
Count of elements : 1389
Stream size : 41.1 KiB (0%)
Language : English
Default : Yes
Forced : No

Text #2
ID : 5
ID in the original source medium : 4608 (0x1200)
Format : PGS
Muxing mode : zlib
Codec ID : S_HDMV/PGS
Codec ID/Info : Picture based subtitle format used on BDs/HD-DVDs
Duration : 1 h 27 min
Bit rate : 86 b/s
Frame rate : 0.002 FPS
Count of elements : 8
Stream size : 55.5 KiB (0%)
Language : English
Default : No
Forced : No
Original source medium : Blu-ray

Menu
00:00:00.000 : en:Chapter 01
00:16:46.213 : en:Chapter 02
00:25:49.881 : en:Chapter 03
00:33:12.740 : en:Chapter 04
00:38:47.283 : en:Chapter 05
00:54:32.560 : en:Chapter 06
01:05:46.317 : en:Chapter 07
01:23:35.802 : en:Chapter 08
01:34:28.329 : en:Chapter 09
01:43:55.187 : en:Chapter 10
01:55:22.749 : en:Chapter 11
02:02:57.078 : en:Chapter 12





1 个附件 售价 大小 下载 时间

Alienoid.2022.KOREAN.1080p.BluRay.x264.DTS-HD.MA.5.1-NOGRP.torrent 0 金币 22.22K 2254 次 2月前

#1楼
发帖时间:2022-12-04 08:57:43   |   回复数:2
show55667878
武林高手
感謝分享這電影
2月前 #2楼
liyouchai
隐世仙人♂
谢谢楼主分享资源
2月前 #3楼
游客组