BILL36
隐世仙人♂

[2017] [美国] [惊悚] [WEB-4K] 爱国者 第一季[全10集][简繁英字幕].Patriot.S01.2160p.AMZN.WEB-DL.DDP.5.1.HDR10/.H.265-BlackTV

-->

完整标题:爱国者 第一季[全10集][简繁英字幕].Patriot.S01.2160p.AMZN.WEB-DL.DDP.5.1.HDR10/.H.265-BlackTV 52.44GB



◎标  题 爱国者 第一季
◎译  名 The Patriot
◎片  名 Patriot Season 1
◎年  代 2017
◎产  地 美国
◎类  别 惊悚
◎语  言 英语
◎IMDb评分 8.2/10 (16011人评价)
◎IMDb链接 https://www.imdb.com/title/tt4687882/
◎豆瓣评分 8.2/10 (459人评价)
◎豆瓣链接 https://movie.douban.com/subject/26628717/
◎导  演 斯蒂夫·康拉德 Steve Conrad
◎编  剧 斯蒂夫·康拉德 Steve Conrad
◎演  员 柯特伍德·史密斯 Kurtwood Smith
      凯丝琳·蒙露 Kathleen Munroe
      梅根·赫弗恩 Meghan Heffern
      克里斯·康拉德 Chris Conrad
      迈克尔·多曼 Michael Dorman
      特瑞·欧奎恩 Terry O'Quinn
      迈克尔·切鲁斯 Michael Chernus
      兰内特·瓦雷 Lanette Ware
      沙恩·弗朗西斯·史密斯 Shane Francis Smith
      克里斯·桑迪福德 Chris Sandiford
      Aliette Opheim Aliette Opheim
      朱利安·瑞钦斯 Julian Richings
      格里芬·凯恩 Griffin Kane
      曼努尔·泰德罗斯 Manuel Tadros

◎简  介
    《爱国者》的主角是一位美国情报人员,为阻止伊朗研发核武器,他不得不伪装成一家工业管道公司的雇员,进行一项卧底任务。创伤后应激障碍(PTSD)、无能的政府机构以及管道公司繁杂的日常工作都是他需要克服的困难。这位名叫约翰·塔纳(John Tovner)的情报人员由《嗜血破晓》(Daybreakers)男星迈克尔·多曼(Michael Dorman)饰演;《迷失》(Lost)男星特瑞·欧奎恩(Terry O’Quinn)饰演他担任国务院情报主管的父亲;《曼哈顿计划》主演迈克尔·哲努斯(Michael Chernus)饰演他的弟弟,一位年轻的国会议员。《天气预报员》(The Weather Man)编剧史蒂芬·康拉德(Steven Conrad)将担任本剧的导演和编剧。

##### MediaInfo ######
General
Unique ID : 302846962971716292764493616935967950872 (0xE3D63415A7205F9E93573DA92C6C8818)
Complete name : Patriot.S01E01.Milwaukee.America.2160p.AMZN.WEB-DL.DDP.5.1.HDR10+.H.265-BlackTV.mkv
Format : Matroska
Format version : Version 4
File size : 6.11 GiB
Duration : 58 min 38 s
Overall bit rate : 14.9 Mb/s
Encoded date : UTC 2023-04-28 16:03:09
Writing application : mkvmerge v71.1.0 ('Fortitude') 64-bit
Writing library : libebml v1.4.4 + libmatroska v1.7.1
Muxer : CHDBits WEB Group

Video
ID : 1
Format : HEVC
Format/Info : High Efficiency Video Coding
Format profile : Main 10@L5@Main
HDR format : SMPTE ST 2094 App 4, Version 1, HDR10+ Profile B compatible
Codec ID : V_MPEGH/ISO/HEVC
Duration : 58 min 38 s
Bit rate : 14.3 Mb/s
Width : 3 840 pixels
Height : 2 160 pixels
Display aspect ratio : 16:9
Frame rate mode : Constant
Frame rate : 23.976 (24000/1001) FPS
Color space : YUV
Chroma subsampling : 4:2:0
Bit depth : 10 bits
Bits/(Pixel*Frame) : 0.072
Stream size : 5.85 GiB (96%)
Language : English
Default : Yes
Forced : No
Color range : Limited
Color primaries : BT.2020
Transfer characteristics : PQ
Matrix coefficients : BT.2020 non-constant
Mastering display color primaries : Display P3
Mastering display luminance : min: 0.0001 cd/m2, max: 1000 cd/m2
Maximum Content Light Level : 938 cd/m2
Maximum Frame-Average Light Level : 84 cd/m2

Audio
ID : 2
Format : E-AC-3
Format/Info : Enhanced AC-3
Commercial name : Dolby Digital Plus
Codec ID : A_EAC3
Duration : 58 min 38 s
Bit rate mode : Constant
Bit rate : 640 kb/s
Channel(s) : 6 channels
Channel layout : L R C LFE Ls Rs
Sampling rate : 48.0 kHz
Frame rate : 31.250 FPS (1536 SPF)
Compression mode : Lossy
Stream size : 268 MiB (4%)
Language : English
Service kind : Complete Main
Default : Yes
Forced : No

Text #1
ID : 3
Format : UTF-8
Codec ID : S_TEXT/UTF8
Codec ID/Info : UTF-8 Plain Text
Duration : 38 min 32 s
Bit rate : 1 b/s
Count of elements : 9
Stream size : 310 Bytes (0%)
Title : Forced
Language : English
Default : Yes
Forced : Yes

Text #2
ID : 4
Format : UTF-8
Codec ID : S_TEXT/UTF8
Codec ID/Info : UTF-8 Plain Text
Duration : 57 min 15 s
Bit rate : 68 b/s
Count of elements : 1057
Stream size : 28.8 KiB (0%)
Title : SDH
Language : English
Default : No
Forced : No

Text #3
ID : 5
Format : UTF-8
Codec ID : S_TEXT/UTF8
Codec ID/Info : UTF-8 Plain Text
Duration : 55 min 26 s
Bit rate : 59 b/s
Count of elements : 880
Stream size : 24.2 KiB (0%)
Title : Simplified
Language : Chinese
Default : No
Forced : No

Text #4
ID : 6
Format : UTF-8
Codec ID : S_TEXT/UTF8
Codec ID/Info : UTF-8 Plain Text
Duration : 55 min 26 s
Bit rate : 58 b/s
Count of elements : 881
Stream size : 23.7 KiB (0%)
Title : Traditional
Language : Chinese
Default : No
Forced : No

Text #5
ID : 7
Format : UTF-8
Codec ID : S_TEXT/UTF8
Codec ID/Info : UTF-8 Plain Text
Duration : 55 min 26 s
Bit rate : 96 b/s
Count of elements : 848
Stream size : 39.3 KiB (0%)
Title : Egypt
Language : Arabic
Default : No
Forced : No

Text #6
ID : 8
Format : UTF-8
Codec ID : S_TEXT/UTF8
Codec ID/Info : UTF-8 Plain Text
Duration : 57 min 27 s
Bit rate : 57 b/s
Count of elements : 874
Stream size : 24.3 KiB (0%)
Title : Czechia
Language : Czech
Default : No
Forced : No

Text #7
ID : 9
Format : UTF-8
Codec ID : S_TEXT/UTF8
Codec ID/Info : UTF-8 Plain Text
Duration : 55 min 26 s
Bit rate : 66 b/s
Count of elements : 869
Stream size : 26.8 KiB (0%)
Title : Denmark
Language : Danish
Default : No
Forced : No

Text #8
ID : 10
Format : UTF-8
Codec ID : S_TEXT/UTF8
Codec ID/Info : UTF-8 Plain Text
Duration : 55 min 26 s
Bit rate : 66 b/s
Count of elements : 668
Stream size : 26.9 KiB (0%)
Language : German
Default : No
Forced : No

Text #9
ID : 11
Format : UTF-8
Codec ID : S_TEXT/UTF8
Codec ID/Info : UTF-8 Plain Text
Duration : 57 min 27 s
Bit rate : 108 b/s
Count of elements : 851
Stream size : 45.8 KiB (0%)
Title : Greece
Language : Greek
Default : No
Forced : No

Text #10
ID : 12
Format : UTF-8
Codec ID : S_TEXT/UTF8
Codec ID/Info : UTF-8 Plain Text
Duration : 55 min 26 s
Bit rate : 62 b/s
Count of elements : 840
Stream size : 25.2 KiB (0%)
Title : Latin America
Language : Spanish
Default : No
Forced : No

Text #11
ID : 13
Format : UTF-8
Codec ID : S_TEXT/UTF8
Codec ID/Info : UTF-8 Plain Text
Duration : 55 min 26 s
Bit rate : 61 b/s
Count of elements : 826
Stream size : 25.0 KiB (0%)
Language : Spanish
Default : No
Forced : No

Text #12
ID : 14
Format : UTF-8
Codec ID : S_TEXT/UTF8
Codec ID/Info : UTF-8 Plain Text
Duration : 55 min 26 s
Bit rate : 62 b/s
Count of elements : 868
Stream size : 25.6 KiB (0%)
Language : Finnish
Default : No
Forced : No

Text #13
ID : 15
Format : UTF-8
Codec ID : S_TEXT/UTF8
Codec ID/Info : UTF-8 Plain Text
Duration : 57 min 25 s
Bit rate : 50 b/s
Count of elements : 774
Stream size : 21.4 KiB (0%)
Title : Philippines
Language : fil
Default : No
Forced : No

Text #14
ID : 16
Format : UTF-8
Codec ID : S_TEXT/UTF8
Codec ID/Info : UTF-8 Plain Text
Duration : 55 min 26 s
Bit rate : 66 b/s
Count of elements : 836
Stream size : 26.8 KiB (0%)
Language : French
Default : No
Forced : No

Text #15
ID : 17
Format : UTF-8
Codec ID : S_TEXT/UTF8
Codec ID/Info : UTF-8 Plain Text
Duration : 55 min 26 s
Bit rate : 106 b/s
Count of elements : 877
Stream size : 43.3 KiB (0%)
Title : Israel
Language : Hebrew
Default : No
Forced : No

Text #16
ID : 18
Format : UTF-8
Codec ID : S_TEXT/UTF8
Codec ID/Info : UTF-8 Plain Text
Duration : 55 min 26 s
Bit rate : 163 b/s
Count of elements : 871
Stream size : 66.3 KiB (0%)
Title : India
Language : Hindi
Default : No
Forced : No

Text #17
ID : 19
Format : UTF-8
Codec ID : S_TEXT/UTF8
Codec ID/Info : UTF-8 Plain Text
Duration : 57 min 27 s
Bit rate : 57 b/s
Count of elements : 879
Stream size : 24.1 KiB (0%)
Language : Hungarian
Default : No
Forced : No

Text #18
ID : 20
Format : UTF-8
Codec ID : S_TEXT/UTF8
Codec ID/Info : UTF-8 Plain Text
Duration : 55 min 23 s
Bit rate : 62 b/s
Count of elements : 853
Stream size : 25.5 KiB (0%)
Language : Indonesian
Default : No
Forced : No

Text #19
ID : 21
Format : UTF-8
Codec ID : S_TEXT/UTF8
Codec ID/Info : UTF-8 Plain Text
Duration : 57 min 35 s
Bit rate : 55 b/s
Count of elements : 811
Stream size : 23.4 KiB (0%)
Language : Italian
Default : No
Forced : No

Text #20
ID : 22
Format : UTF-8
Codec ID : S_TEXT/UTF8
Codec ID/Info : UTF-8 Plain Text
Duration : 55 min 26 s
Bit rate : 55 b/s
Count of elements : 719
Stream size : 22.5 KiB (0%)
Title : Japan
Language : Japanese
Default : No
Forced : No

Text #21
ID : 23
Format : UTF-8
Codec ID : S_TEXT/UTF8
Codec ID/Info : UTF-8 Plain Text
Duration : 55 min 26 s
Bit rate : 76 b/s
Count of elements : 872
Stream size : 31.2 KiB (0%)
Title : South Korea
Language : Korean
Default : No
Forced : No

Text #22
ID : 24
Format : UTF-8
Codec ID : S_TEXT/UTF8
Codec ID/Info : UTF-8 Plain Text
Duration : 57 min 27 s
Bit rate : 57 b/s
Count of elements : 862
Stream size : 24.2 KiB (0%)
Title : Malaysia
Language : Malay
Default : No
Forced : No

Text #23
ID : 25
Format : UTF-8
Codec ID : S_TEXT/UTF8
Codec ID/Info : UTF-8 Plain Text
Duration : 55 min 26 s
Bit rate : 61 b/s
Count of elements : 833
Stream size : 25.0 KiB (0%)
Title : Norway
Language : Norwegian Bokmal
Default : No
Forced : No

Text #24
ID : 26
Format : UTF-8
Codec ID : S_TEXT/UTF8
Codec ID/Info : UTF-8 Plain Text
Duration : 55 min 26 s
Bit rate : 60 b/s
Count of elements : 799
Stream size : 24.4 KiB (0%)
Language : Dutch
Default : No
Forced : No

Text #25
ID : 27
Format : UTF-8
Codec ID : S_TEXT/UTF8
Codec ID/Info : UTF-8 Plain Text
Duration : 57 min 27 s
Bit rate : 53 b/s
Count of elements : 807
Stream size : 22.6 KiB (0%)
Language : Polish
Default : No
Forced : No

Text #26
ID : 28
Format : UTF-8
Codec ID : S_TEXT/UTF8
Codec ID/Info : UTF-8 Plain Text
Duration : 55 min 26 s
Bit rate : 63 b/s
Count of elements : 848
Stream size : 25.9 KiB (0%)
Title : Brazil
Language : Portuguese
Default : No
Forced : No

Text #27
ID : 29
Format : UTF-8
Codec ID : S_TEXT/UTF8
Codec ID/Info : UTF-8 Plain Text
Duration : 57 min 27 s
Bit rate : 58 b/s
Count of elements : 857
Stream size : 24.6 KiB (0%)
Language : Portuguese
Default : No
Forced : No

Text #28
ID : 30
Format : UTF-8
Codec ID : S_TEXT/UTF8
Codec ID/Info : UTF-8 Plain Text
Duration : 57 min 27 s
Bit rate : 62 b/s
Count of elements : 870
Stream size : 26.3 KiB (0%)
Language : Romanian
Default : No
Forced : No

Text #29
ID : 31
Format : UTF-8
Codec ID : S_TEXT/UTF8
Codec ID/Info : UTF-8 Plain Text
Duration : 55 min 26 s
Bit rate : 105 b/s
Count of elements : 841
Stream size : 43.0 KiB (0%)
Language : Russian
Default : No
Forced : No

Text #30
ID : 32
Format : UTF-8
Codec ID : S_TEXT/UTF8
Codec ID/Info : UTF-8 Plain Text
Duration : 55 min 26 s
Bit rate : 63 b/s
Count of elements : 828
Stream size : 25.6 KiB (0%)
Title : Sweden
Language : Swedish
Default : No
Forced : No

Text #31
ID : 33
Format : UTF-8
Codec ID : S_TEXT/UTF8
Codec ID/Info : UTF-8 Plain Text
Duration : 55 min 26 s
Bit rate : 189 b/s
Count of elements : 876
Stream size : 76.9 KiB (0%)
Title : India
Language : Tamil
Default : No
Forced : No

Text #32
ID : 34
Format : UTF-8
Codec ID : S_TEXT/UTF8
Codec ID/Info : UTF-8 Plain Text
Duration : 55 min 26 s
Bit rate : 177 b/s
Count of elements : 872
Stream size : 72.0 KiB (0%)
Title : India
Language : Telugu
Default : No
Forced : No

Text #33
ID : 35
Format : UTF-8
Codec ID : S_TEXT/UTF8
Codec ID/Info : UTF-8 Plain Text
Duration : 55 min 26 s
Bit rate : 153 b/s
Count of elements : 874
Stream size : 62.3 KiB (0%)
Language : Thai
Default : No
Forced : No

Text #34
ID : 36
Format : UTF-8
Codec ID : S_TEXT/UTF8
Codec ID/Info : UTF-8 Plain Text
Duration : 55 min 26 s
Bit rate : 64 b/s
Count of elements : 842
Stream size : 26.1 KiB (0%)
Language : Turkish
Default : No
Forced : No

Text #35
ID : 37
Format : UTF-8
Codec ID : S_TEXT/UTF8
Codec ID/Info : UTF-8 Plain Text
Duration : 57 min 27 s
Bit rate : 99 b/s
Count of elements : 880
Stream size : 41.7 KiB (0%)
Title : Ukraine
Language : Ukrainian
Default : No
Forced : No

Text #36
ID : 38
Format : UTF-8
Codec ID : S_TEXT/UTF8
Codec ID/Info : UTF-8 Plain Text
Duration : 57 min 27 s
Bit rate : 77 b/s
Count of elements : 876
Stream size : 32.7 KiB (0%)
Title : Vietnam
Language : Vietnamese
Default : No
Forced : No

Menu
00:00:00.000 : en:Amazon Studios
00:00:05.000 : en:Interview day
00:02:44.000 : en:Opening Credits
00:03:44.000 : en:My son sings folk songs
00:07:59.000 : en:Change of plans
00:11:08.000 : en:Tom tasks Edward with bringing John home
00:13:22.000 : en:Efram learns about Mary Poppins
00:16:54.000 : en:John participates in the mechanical bull riding contest
00:18:24.000 : en:Alice embraces John's return
00:20:18.000 : en:Tom tells John what the new mission is
00:23:58.000 : en:John must overcome one more obstacle before getting the job
00:28:10.000 : en:Edward becomes an attach茅 for Timothy Peetnam
00:29:38.000 : en:John receives the money he needs to transfer overseas
00:30:32.000 : en:Flying commercial
00:32:19.000 : en:John learns who has his case of money
00:36:17.000 : en:John finds the Brazillian's house
00:39:56.000 : en:John arrives late to the dinner meeting with Maurice
00:42:58.000 : en:John performs a new song at a Luxembourg pub
00:45:39.000 : en:Agathe takes on an unusually large homicide case
00:46:29.000 : en:John receives a threat
00:47:01.000 : en:Agathe explains to her daughter why she must leave
00:48:15.000 : en:John gives away the money
00:49:02.000 : en:Anything for family
00:50:11.000 : en:Edward tells Efram a bedtime story
00:52:13.000 : en:Conned
00:52:32.000 : en:It can only get better from here
00:56:13.000 : en:End Credits

点击图片可查看大图

软字幕无法在截图上展现,HDR版本/杜比视界版本截图会出现颜色异常,请使用支持的设备播放!

部分资源为软字幕,移动端推荐播放器:MxPlayer,nPlayer,infuse ,其他播放器请自行尝试。

部分资源为软字幕,电脑端推荐播放器:PotPlayer,完美解码,KMPLAYER,其他播放器请自行尝试。



1 个附件 售价 大小 下载 时间

Patriot.S01.2160p.AMZN.WEB-DL.DDP.5.1.HDR10+.H.265-BlackTV[BTBTT].torrent 0 金币 135.12K 399 次 11月前

#1楼
发帖时间:2023-06-22 21:22:13   |   回复数:0
游客组