BILL36
隐世仙人♂

[2023] [大陆] [剧情] [WEB-1080P] 薄冰[全40集][国语配音/中文字幕].Thin.Ice.2023.S01.1080p.WEB-DL.H264.AAC-Huawei 25.40GB

-->

完整标题:薄冰[全40集][国语配音/中文字幕].Thin.Ice.2023.S01.1080p.WEB-DL.H264.AAC-Huawei 25.40GB



◎标  题 薄冰
◎年  代 2023
◎产  地 中国大陆
◎类  别 剧情 / 悬疑
◎语  言 汉语普通话
◎IMDb链接 https://www.imdb.com/title/tt27384637/
◎豆瓣链接 https://movie.douban.com/subject/35639380/
◎导  演 金琛 Chen Jin
◎编  剧 海飞 Fei Hai
◎演  员 彭冠英 Guanying Peng
      陈钰琪 Yukee Chen
      富大龙 Dalong Fu
      高瀚宇 Hanyu Gao
      陈小纭 Xiaoyun Chen
      王劲松 Jinsong Wang
      吴越 Yue Wu
      董洁 Jie Dong
      姚安濂 Anlian Yao
      孙之鸿 Zhihong Sun
      宋家腾 Jiateng Song
      何明翰 Minghan He
      王远达 Yuanda Wang
      王婉娟 Wang Wanjuan
      李智楠 Zhi-nan Li
      戴毅 Yi Dai
      庞竞 Jing Pang

◎简  介
    1943年上海,军统特工陈浅奉命对日本人进行暗杀,却掉入日本梅机关特务头子井田裕次郎的陷阱,陈浅置之死地,幸得潜伏在梅机关的共产党员“飞天”相救,逃出生天,并意外得知了日本人的阴谋。为了阻止侵略者的险恶计划,陈浅开始接受特训,伪装成日本特使再度光临梅机关。深入敌营的陈浅在黑暗中步步为营,如履薄冰,在共产党员春羊的帮助下屡次化险为夷,当几位共产党人牺牲后,陈浅受到强烈的震撼,逐渐坚定了自己的共产主义信仰。之后,他与共产党地下组织通力合作,成功粉碎日寇阴谋。日军战败后,陈浅以秘密共产党员的身份重回军统,与共产党新一任“飞天”携手合作,生死与共,挫败了军统的“涅槃计划”,迎来重庆和平解放。

##### MediaInfo ######
General
Unique ID : 256115571201819209005146996821908564997 (0xC0AE10956E71633D93AC97E8A98CAC05)
Complete name : Thin.Ice.2023.S01E01.1080p.WEB-DL.H264.AAC-Huawei.mkv
Format : Matroska
Format version : Version 4
File size : 912 MiB
Duration : 45 min 54 s
Overall bit rate : 2 776 kb/s
Encoded date : UTC 2023-04-09 14:15:52
Writing application : mkvmerge v61.0.0 ('So') 64-bit
Writing library : libebml v1.4.2 + libmatroska v1.6.4

Video
ID : 1
Format : AVC
Format/Info : Advanced Video Codec
Format profile : High@L4
Format settings : CABAC / 4 Ref Frames
Format settings, CABAC : Yes
Format settings, Reference frames : 4 frames
Codec ID : V_MPEG4/ISO/AVC
Duration : 45 min 54 s
Bit rate : 2 582 kb/s
Width : 1 920 pixels
Height : 1 080 pixels
Display aspect ratio : 16:9
Frame rate mode : Constant
Frame rate : 25.000 FPS
Color space : YUV
Chroma subsampling : 4:2:0
Bit depth : 8 bits
Scan type : Progressive
Bits/(Pixel*Frame) : 0.050
Stream size : 848 MiB (93%)
Writing library : www.mgtv.com codec
Default : Yes
Forced : No

Audio
ID : 2
Format : AAC LC
Format/Info : Advanced Audio Codec Low Complexity
Codec ID : A_AAC-2
Duration : 45 min 54 s
Bit rate : 192 kb/s
Channel(s) : 2 channels
Channel layout : L R
Sampling rate : 44.1 kHz
Frame rate : 43.066 FPS (1024 SPF)
Compression mode : Lossy
Stream size : 62.3 MiB (7%)
Default : Yes
Forced : No

Text #1
ID : 3
Format : UTF-8
Codec ID : S_TEXT/UTF8
Codec ID/Info : UTF-8 Plain Text
Duration : 40 min 11 s
Bit rate : 32 b/s
Count of elements : 602
Stream size : 9.61 KiB (0%)
Title : 简体中文
Language : Chinese
Default : Yes
Forced : No

Text #2
ID : 4
Format : UTF-8
Codec ID : S_TEXT/UTF8
Codec ID/Info : UTF-8 Plain Text
Duration : 40 min 11 s
Bit rate : 41 b/s
Count of elements : 602
Stream size : 12.1 KiB (0%)
Title : English
Language : English
Default : Yes
Forced : No

Text #3
ID : 5
Format : UTF-8
Codec ID : S_TEXT/UTF8
Codec ID/Info : UTF-8 Plain Text
Duration : 40 min 11 s
Bit rate : 97 b/s
Count of elements : 602
Stream size : 28.7 KiB (0%)
Title : ???????
Language : Thai
Default : Yes
Forced : No

Text #4
ID : 6
Format : UTF-8
Codec ID : S_TEXT/UTF8
Codec ID/Info : UTF-8 Plain Text
Duration : 40 min 11 s
Bit rate : 32 b/s
Count of elements : 602
Stream size : 9.61 KiB (0%)
Title : 繁體中文
Language : Chinese
Default : Yes
Forced : No

Text #5
ID : 7
Format : UTF-8
Codec ID : S_TEXT/UTF8
Codec ID/Info : UTF-8 Plain Text
Duration : 40 min 11 s
Bit rate : 46 b/s
Count of elements : 602
Stream size : 13.7 KiB (0%)
Title : Fran?ais
Language : French
Default : Yes
Forced : No

Text #6
ID : 8
Format : UTF-8
Codec ID : S_TEXT/UTF8
Codec ID/Info : UTF-8 Plain Text
Duration : 40 min 11 s
Bit rate : 47 b/s
Count of elements : 602
Stream size : 14.0 KiB (0%)
Title : 日本語
Language : Japanese
Default : Yes
Forced : No

Text #7
ID : 9
Format : UTF-8
Codec ID : S_TEXT/UTF8
Codec ID/Info : UTF-8 Plain Text
Duration : 40 min 11 s
Bit rate : 46 b/s
Count of elements : 602
Stream size : 13.8 KiB (0%)
Title : ???
Language : Korean
Default : Yes
Forced : No

Text #8
ID : 10
Format : UTF-8
Codec ID : S_TEXT/UTF8
Codec ID/Info : UTF-8 Plain Text
Duration : 40 min 11 s
Bit rate : 42 b/s
Count of elements : 602
Stream size : 12.6 KiB (0%)
Title : Bahasa Malaysia
Language : Malay
Default : Yes
Forced : No

Text #9
ID : 11
Format : UTF-8
Codec ID : S_TEXT/UTF8
Codec ID/Info : UTF-8 Plain Text
Duration : 40 min 11 s
Bit rate : 41 b/s
Count of elements : 602
Stream size : 12.2 KiB (0%)
Title : Espa?ol
Language : Spanish
Default : Yes
Forced : No

Text #10
ID : 12
Format : UTF-8
Codec ID : S_TEXT/UTF8
Codec ID/Info : UTF-8 Plain Text
Duration : 40 min 11 s
Bit rate : 41 b/s
Count of elements : 602
Stream size : 12.2 KiB (0%)
Title : Português
Language : Portuguese
Default : Yes
Forced : No

Text #11
ID : 13
Format : UTF-8
Codec ID : S_TEXT/UTF8
Codec ID/Info : UTF-8 Plain Text
Duration : 40 min 11 s
Bit rate : 44 b/s
Count of elements : 602
Stream size : 13.1 KiB (0%)
Title : Filipino
Language : fil
Default : Yes
Forced : No

Text #12
ID : 14
Format : UTF-8
Codec ID : S_TEXT/UTF8
Codec ID/Info : UTF-8 Plain Text
Duration : 40 min 11 s
Bit rate : 44 b/s
Count of elements : 602
Stream size : 13.1 KiB (0%)
Title : Italiano
Language : Italian
Default : Yes
Forced : No

Text #13
ID : 15
Format : UTF-8
Codec ID : S_TEXT/UTF8
Codec ID/Info : UTF-8 Plain Text
Duration : 40 min 11 s
Bit rate : 45 b/s
Count of elements : 602
Stream size : 13.4 KiB (0%)
Title : Deutsch
Language : German
Default : Yes
Forced : No

Text #14
ID : 16
Format : UTF-8
Codec ID : S_TEXT/UTF8
Codec ID/Info : UTF-8 Plain Text
Duration : 40 min 11 s
Bit rate : 72 b/s
Count of elements : 602
Stream size : 21.3 KiB (0%)
Title : Русский
Language : Russian
Default : Yes
Forced : No

Text #15
ID : 17
Format : UTF-8
Codec ID : S_TEXT/UTF8
Codec ID/Info : UTF-8 Plain Text
Duration : 40 min 11 s
Bit rate : 59 b/s
Count of elements : 602
Stream size : 17.4 KiB (0%)
Title : ???????
Language : Arabic
Default : Yes
Forced : No

Text #16
ID : 18
Format : UTF-8
Codec ID : S_TEXT/UTF8
Codec ID/Info : UTF-8 Plain Text
Duration : 40 min 11 s
Bit rate : 44 b/s
Count of elements : 602
Stream size : 13.2 KiB (0%)
Title : Bahasa Indonesia
Language : Indonesian
Default : Yes
Forced : No

Text #17
ID : 19
Format : UTF-8
Codec ID : S_TEXT/UTF8
Codec ID/Info : UTF-8 Plain Text
Duration : 40 min 11 s
Bit rate : 37 b/s
Count of elements : 602
Stream size : 11.2 KiB (0%)
Title : Kiswahili
Language : Swahili
Default : Yes
Forced : No

Text #18
ID : 20
Format : UTF-8
Codec ID : S_TEXT/UTF8
Codec ID/Info : UTF-8 Plain Text
Duration : 43 min 0 s
Bit rate : 55 b/s
Count of elements : 604
Stream size : 17.6 KiB (0%)
Title : Ti?ng Vi?t
Language : Vietnamese
Default : Yes
Forced : No

点击图片可查看大图

软字幕无法在截图上展现,HDR版本/杜比视界版本截图会出现颜色异常,请使用支持的设备播放!

部分资源为软字幕,移动端推荐播放器:MxPlayer,nPlayer,infuse ,其他播放器请自行尝试。

部分资源为软字幕,电脑端推荐播放器:PotPlayer,完美解码,KMPLAYER,其他播放器请自行尝试。



1 个附件 售价 大小 下载 时间

Thin.Ice.2023.S01.1080p.WEB-DL.H264.AAC-Huawei[BTBTT].torrent 0 金币 69.66K 2975 次 11月前

#1楼
发帖时间:2023-06-22 21:22:27   |   回复数:0
游客组