BILL36
隐世仙人♂

[2017] [韩国] [剧情] [WEB-4K] 秘密森林[全16集][中文字幕].Stranger.S01.2160p.TVING.WEB-DL.AAC2.0.HFR.H.265-TVING 42.06GB

-->

完整标题:秘密森林[全16集][中文字幕].Stranger.S01.2160p.TVING.WEB-DL.AAC2.0.HFR.H.265-TVING 42.06GB



◎标  题 秘密森林
◎译  名 秘密的森林 / 秘密之森 / Forest of Secrets / Stranger
◎片  名 비밀의 숲
◎年  代 2017
◎产  地 韩国
◎类  别 剧情 / 悬疑 / 惊悚 / 犯罪
◎语  言 韩语
◎IMDb评分 8.5/10 (9035人评价)
◎IMDb链接 https://www.imdb.com/title/tt6461346/
◎豆瓣评分 9.3/10 (174443人评价)
◎豆瓣链接 https://movie.douban.com/subject/26934346/
◎导  演 安吉镐 Ahn Gil-ho
◎编  剧 李秀妍 Soo-Yeon Lee
◎演  员 曹承佑 Seung-woo Cho
      裴斗娜 Doona Bae
      李浚赫 Jun-hyuk Lee
      申惠善 Hye-sun Shin
      朴镇宇 Park Jin-woo
      崔秉默 Byung-mo Choi
      李璟荣 Kyeong-yeong Lee
      刘在明 Jae-myung Yoo
      尹世雅 Se-ah Yoon
      徐东元 Dong-won Seo
      朴顺天 Sun-Cheon Park
      严孝燮 Uhm Hyo Sup
      尹敬浩 Kyung-ho Yoon
      李奎炯 Kyu-hyung Lee
      朴柔娜 You Na Park
      崔镇浩 Jin-ho Choi
      宋智浩 Ji-ho Song
      金素拉 So-ra Kim
      崔载雄 Jae-woong Choi
      朴成根 Sung-geun Park
      宋秀贤 Soo-hyun Song
      韩昌贤 Han Chang-hyeon
      张成范 Sung-bum Jang
      朴健洛 Gun-rak Park
      全裴修 Bae-soo Jeon
      李东勇 Lee Dong-yong
      林基雄 Gi-hong Im
      卞周贤 Joo-hyun Byun
      李豪宰 Lee Ho-jae
      尹宗仁 Yoon Jong-in
      权赫洙 Kwon Hyuk Soo
      朴成均 Park Seong-gyoon
      孙成灿 Son Seong-chan
      姜敏泰 Kang Min-tae
      尹志温 Ji-on Yoon
      金秀仁 Soo-In Kim
      朴基龙 Ki-ryung Park

◎简  介
    讲述了儿时经历脑部手术失去情感神经的天才检察官黄时木(曹承佑 饰)8年来在腐败的检查厅内一直孤军奋战,直到某天一具诡异的尸体让他卷入了一场恐怖的连环杀人事件。裴斗娜饰演的女警韩汝真正义感十足,在经过严苛选拔进入核心重案组后便开始协助黄时木调查此案。

##### MediaInfo ######
General
Unique ID : 141595004148594089421438584206892346345 (0x6A8634B25BE28DC23A02978C8EFE2BE9)
Complete name : Stranger.S01E01.2160p.TVING.WEB-DL.AAC2.0.HFR.H.265-TVING.mkv
Format : Matroska
Format version : Version 4
File size : 2.86 GiB
Duration : 1 h 15 min
Overall bit rate : 5 389 kb/s
Encoded date : UTC 2023-04-27 05:00:01
Writing application : mkvmerge v65.0.0 ('Too Much') 64-bit
Writing library : libebml v1.4.2 + libmatroska v1.6.4

Video
ID : 1
Format : HEVC
Format/Info : High Efficiency Video Coding
Format profile : Main [email protected]@High
Codec ID : V_MPEGH/ISO/HEVC
Duration : 1 h 15 min
Bit rate : 5 001 kb/s
Width : 3 840 pixels
Height : 2 160 pixels
Display aspect ratio : 16:9
Frame rate mode : Constant
Frame rate : 59.940 (60000/1001) FPS
Standard : Component
Color space : YUV
Chroma subsampling : 4:2:0
Bit depth : 10 bits
Bits/(Pixel*Frame) : 0.010
Stream size : 2.65 GiB (93%)
Default : Yes
Forced : No
Color range : Limited
Color primaries : BT.709
Transfer characteristics : BT.709
Matrix coefficients : BT.709

Audio
ID : 2
Format : AAC LC
Format/Info : Advanced Audio Codec Low Complexity
Codec ID : A_AAC-2
Duration : 1 h 15 min
Bit rate : 384 kb/s
Channel(s) : 2 channels
Channel layout : L R
Sampling rate : 48.0 kHz
Frame rate : 46.875 FPS (1024 SPF)
Compression mode : Lossy
Stream size : 209 MiB (7%)
Language : Korean
Default : Yes
Forced : No

Text #1
ID : 3
Format : UTF-8
Codec ID : S_TEXT/UTF8
Codec ID/Info : UTF-8 Plain Text
Duration : 1 h 15 min
Bit rate : 38 b/s
Count of elements : 892
Stream size : 21.5 KiB (0%)
Title : Chinese Simplified
Language : Chinese
Default : Yes
Forced : No

Text #2
ID : 4
Format : UTF-8
Codec ID : S_TEXT/UTF8
Codec ID/Info : UTF-8 Plain Text
Duration : 1 h 15 min
Bit rate : 38 b/s
Count of elements : 892
Stream size : 21.5 KiB (0%)
Title : Chinese Traditional
Language : Chinese
Default : Yes
Forced : No

点击图片可查看大图

软字幕无法在截图上展现,HDR版本/杜比视界版本截图会出现颜色异常,请使用支持的设备播放!

部分资源为软字幕,移动端推荐播放器:MxPlayer,nPlayer,infuse ,其他播放器请自行尝试。

部分资源为软字幕,电脑端推荐播放器:PotPlayer,完美解码,KMPLAYER,其他播放器请自行尝试。



1 个附件 售价 大小 下载 时间

Stranger.S01.2160p.TVING.WEB-DL.AAC2.0.HFR.H.265-TVING[BTBTT].torrent 0 金币 109.44K 13700 次 12月前

#1楼
发帖时间:2023-06-22 21:23:11   |   回复数:1
linbr
一派掌门
多谢楼主分享
8月前 #2楼
游客组