BILL36
隐世仙人♂

[2016] [美国] [剧情] [WEB-1080P] 行尸之惧 第二季[全15集][国英多音轨/简繁英字幕].Fear.the.Walking.Dead.S02.2016.Amazon.WEB-DL.1080p.H

-->

完整标题:行尸之惧 第二季[全15集][国英多音轨/简繁英字幕].Fear.the.Walking.Dead.S02.2016.Amazon.WEB-DL.1080p.HEVC.DDP-Xiaomi 39.20GB



◎标  题 行尸之惧 第二季
◎译  名 Cobalt / Fear of The Walking Dead
◎片  名 Fear the Walking Dead Season 2
◎年  代 2016
◎产  地 美国
◎类  别 剧情 / 恐怖
◎语  言 英语
◎IMDb评分 7/10 (5408人评价)
◎IMDb链接 https://www.imdb.com/title/tt4549108/
◎豆瓣评分 6.4/10 (3733人评价)
◎豆瓣链接 https://movie.douban.com/subject/26340501/
◎导  演 赫拉尔多·纳兰霍 Gerardo Naranjo
      凯特·丹尼斯 Kate Dennis
      克雷格·齐斯克 Craig Zisk
      丹尼尔·沙克海姆 Daniel Sackheim
      亚当·戴维森 Adam Davidson
      黛博拉·周 Deborah Chow
◎编  剧 罗伯特·柯克曼 Robert Kirkman
      阿兰·佩吉·阿里亚加 Alan Page Arriaga
      大卫·沃纳 David Wiener
      凯特·巴尔瑙 Kate Barnow
◎演  员 金·迪肯斯 Kim Dickens
      克利夫·柯蒂斯 Cliff Curtis
      弗兰克·迪兰 Frank Dillane
      阿莉西娅·戴柏南·凯里 Alycia Debnam Carey
      卢宾·布雷兹 Rubén Blades
      梅赛德丝·马索霍 Mercedes Masöhn
      洛伦佐·詹姆斯·亨里 Lorenzo James Henrie
      科尔曼·多明戈 Colman Domingo
      戴安娜·莱茵 Diana Lein
      莎拉·麦克雷诺 Sarah McCreanor
      伊瑟尔·布罗萨德 Israel Broussard
      维罗妮卡·迪亚兹·卡兰萨 Veronica Diaz Carranza
      肯尼·沃莫尔德 Kenny Wormald
      米歇尔·洪 Michelle Ang
      琳·阿莉西亚·亨德森 Lyn Alicia Henderson

◎简  介
    《行尸之惧》尚未播出就已经获得第二季续订。

##### MediaInfo ######
General
Unique ID : 260676854544582540607932756986084757759 (0xC41C893723A848303ED796A776F490FF)
Complete name : Fear.the.Walking.Dead.S02E01.2016.Amazon.WEB-DL.1080p.HEVC.DDP-Xiaomi.mkv
Format : Matroska
Format version : Version 4
File size : 2.44 GiB
Duration : 42 min 51 s
Overall bit rate : 8 156 kb/s
Encoded date : UTC 2021-09-28 15:24:15
Writing application : mkvmerge v46.0.0 ('No Deeper Escape') 64-bit
Writing library : libebml v1.3.10 + libmatroska v1.5.2

Video
ID : 1
Format : HEVC
Format/Info : High Efficiency Video Coding
Format profile : Main@L4@Main
Codec ID : V_MPEGH/ISO/HEVC
Duration : 42 min 51 s
Bit rate : 6 231 kb/s
Width : 1 920 pixels
Height : 1 080 pixels
Display aspect ratio : 16:9
Frame rate mode : Constant
Frame rate : 23.976 (24000/1001) FPS
Standard : NTSC
Color space : YUV
Chroma subsampling : 4:2:0
Bit depth : 8 bits
Bits/(Pixel*Frame) : 0.125
Stream size : 1.86 GiB (76%)
Default : Yes
Forced : No
Color range : Limited
Color primaries : BT.709
Transfer characteristics : BT.709
Matrix coefficients : BT.709

Audio #1
ID : 2
Format : E-AC-3
Format/Info : Enhanced AC-3
Commercial name : Dolby Digital Plus
Codec ID : A_EAC3
Duration : 42 min 51 s
Bit rate mode : Constant
Bit rate : 640 kb/s
Channel(s) : 6 channels
Channel layout : L R C LFE Ls Rs
Sampling rate : 48.0 kHz
Frame rate : 31.250 FPS (1536 SPF)
Compression mode : Lossy
Stream size : 196 MiB (8%)
Title : English
Language : English
Service kind : Complete Main
Default : No
Forced : No

Audio #2
ID : 3
Format : E-AC-3
Format/Info : Enhanced AC-3
Commercial name : Dolby Digital Plus
Codec ID : A_EAC3
Duration : 42 min 51 s
Bit rate mode : Constant
Bit rate : 640 kb/s
Channel(s) : 6 channels
Channel layout : L R C LFE Ls Rs
Sampling rate : 48.0 kHz
Frame rate : 31.250 FPS (1536 SPF)
Compression mode : Lossy
Stream size : 196 MiB (8%)
Title : 中文(中国)
Language : Chinese
Service kind : Complete Main
Default : No
Forced : No

Audio #3
ID : 4
Format : E-AC-3
Format/Info : Enhanced AC-3
Commercial name : Dolby Digital Plus
Codec ID : A_EAC3
Duration : 42 min 51 s
Bit rate mode : Constant
Bit rate : 640 kb/s
Channel(s) : 6 channels
Channel layout : L R C LFE Ls Rs
Sampling rate : 48.0 kHz
Frame rate : 31.250 FPS (1536 SPF)
Compression mode : Lossy
Stream size : 196 MiB (8%)
Title : 中文(台灣)
Language : Chinese
Service kind : Complete Main
Default : No
Forced : No

Text #1
ID : 5
Format : UTF-8
Codec ID : S_TEXT/UTF8
Codec ID/Info : UTF-8 Plain Text
Duration : 41 min 30 s
Bit rate : 36 b/s
Count of elements : 343
Stream size : 11.0 KiB (0%)
Title : Dansk
Language : Danish
Default : No
Forced : No

Text #2
ID : 6
Format : UTF-8
Codec ID : S_TEXT/UTF8
Codec ID/Info : UTF-8 Plain Text
Duration : 41 min 29 s
Bit rate : 43 b/s
Count of elements : 420
Stream size : 13.3 KiB (0%)
Title : Deutsch
Language : German
Default : No
Forced : No

Text #3
ID : 7
Format : UTF-8
Codec ID : S_TEXT/UTF8
Codec ID/Info : UTF-8 Plain Text
Duration : 42 min 15 s
Bit rate : 48 b/s
Count of elements : 535
Stream size : 15.0 KiB (0%)
Title : English (SDH)
Language : English
Default : No
Forced : No

Text #4
ID : 8
Format : UTF-8
Codec ID : S_TEXT/UTF8
Codec ID/Info : UTF-8 Plain Text
Duration : 41 min 29 s
Bit rate : 41 b/s
Count of elements : 460
Stream size : 12.7 KiB (0%)
Title : Espa?ol (Espa?a)
Language : Spanish
Default : No
Forced : No

Text #5
ID : 9
Format : UTF-8
Codec ID : S_TEXT/UTF8
Codec ID/Info : UTF-8 Plain Text
Duration : 41 min 29 s
Bit rate : 44 b/s
Count of elements : 442
Stream size : 13.5 KiB (0%)
Title : Espa?ol (Latinoamérica)
Language : Spanish
Default : No
Forced : No

Text #6
ID : 10
Format : UTF-8
Codec ID : S_TEXT/UTF8
Codec ID/Info : UTF-8 Plain Text
Duration : 41 min 29 s
Bit rate : 34 b/s
Count of elements : 442
Stream size : 10.6 KiB (0%)
Title : Fran?ais
Language : French
Default : No
Forced : No

Text #7
ID : 11
Format : UTF-8
Codec ID : S_TEXT/UTF8
Codec ID/Info : UTF-8 Plain Text
Duration : 41 min 29 s
Bit rate : 39 b/s
Count of elements : 434
Stream size : 11.9 KiB (0%)
Title : Hrvatski
Language : Croatian
Default : No
Forced : No

Text #8
ID : 12
Format : UTF-8
Codec ID : S_TEXT/UTF8
Codec ID/Info : UTF-8 Plain Text
Duration : 41 min 38 s
Bit rate : 43 b/s
Count of elements : 436
Stream size : 13.3 KiB (0%)
Title : Indonesia
Language : Indonesian
Default : No
Forced : No

Text #9
ID : 13
Format : UTF-8
Codec ID : S_TEXT/UTF8
Codec ID/Info : UTF-8 Plain Text
Duration : 41 min 28 s
Bit rate : 39 b/s
Count of elements : 476
Stream size : 11.9 KiB (0%)
Title : Italiano
Language : Italian
Default : No
Forced : No

Text #10
ID : 14
Format : UTF-8
Codec ID : S_TEXT/UTF8
Codec ID/Info : UTF-8 Plain Text
Duration : 41 min 29 s
Bit rate : 38 b/s
Count of elements : 351
Stream size : 11.8 KiB (0%)
Title : Magyar
Language : Hungarian
Default : No
Forced : No

Text #11
ID : 15
Format : UTF-8
Codec ID : S_TEXT/UTF8
Codec ID/Info : UTF-8 Plain Text
Duration : 41 min 29 s
Bit rate : 33 b/s
Count of elements : 394
Stream size : 10.1 KiB (0%)
Title : Nederlands
Language : Dutch
Default : No
Forced : No

Text #12
ID : 16
Format : UTF-8
Codec ID : S_TEXT/UTF8
Codec ID/Info : UTF-8 Plain Text
Duration : 41 min 30 s
Bit rate : 36 b/s
Count of elements : 343
Stream size : 11.1 KiB (0%)
Title : Norsk Bokm?l
Language : Norwegian Bokmal
Default : No
Forced : No

Text #13
ID : 17
Format : UTF-8
Codec ID : S_TEXT/UTF8
Codec ID/Info : UTF-8 Plain Text
Duration : 41 min 28 s
Bit rate : 29 b/s
Count of elements : 389
Stream size : 9.01 KiB (0%)
Title : Polski
Language : Polish
Default : No
Forced : No

Text #14
ID : 18
Format : UTF-8
Codec ID : S_TEXT/UTF8
Codec ID/Info : UTF-8 Plain Text
Duration : 41 min 29 s
Bit rate : 40 b/s
Count of elements : 411
Stream size : 12.3 KiB (0%)
Title : Português (Brasil)
Language : Portuguese
Default : No
Forced : No

Text #15
ID : 19
Format : UTF-8
Codec ID : S_TEXT/UTF8
Codec ID/Info : UTF-8 Plain Text
Duration : 41 min 28 s
Bit rate : 35 b/s
Count of elements : 288
Stream size : 10.8 KiB (0%)
Title : Português (Portugal)
Language : Portuguese
Default : No
Forced : No

Text #16
ID : 20
Format : UTF-8
Codec ID : S_TEXT/UTF8
Codec ID/Info : UTF-8 Plain Text
Duration : 41 min 28 s
Bit rate : 37 b/s
Count of elements : 469
Stream size : 11.5 KiB (0%)
Title : Roman?
Language : Romanian
Default : No
Forced : No

Text #17
ID : 21
Format : UTF-8
Codec ID : S_TEXT/UTF8
Codec ID/Info : UTF-8 Plain Text
Duration : 41 min 29 s
Bit rate : 46 b/s
Count of elements : 401
Stream size : 14.2 KiB (0%)
Title : Shqip
Language : Albanian
Default : No
Forced : No

Text #18
ID : 22
Format : UTF-8
Codec ID : S_TEXT/UTF8
Codec ID/Info : UTF-8 Plain Text
Duration : 41 min 28 s
Bit rate : 37 b/s
Count of elements : 429
Stream size : 11.5 KiB (0%)
Title : Sloven??ina
Language : Slovenian
Default : No
Forced : No

Text #19
ID : 23
Format : UTF-8
Codec ID : S_TEXT/UTF8
Codec ID/Info : UTF-8 Plain Text
Duration : 41 min 30 s
Bit rate : 40 b/s
Count of elements : 343
Stream size : 12.2 KiB (0%)
Title : Suomi
Language : Finnish
Default : No
Forced : No

Text #20
ID : 24
Format : UTF-8
Codec ID : S_TEXT/UTF8
Codec ID/Info : UTF-8 Plain Text
Duration : 41 min 30 s
Bit rate : 34 b/s
Count of elements : 329
Stream size : 10.6 KiB (0%)
Title : Svenska
Language : Swedish
Default : No
Forced : No

Text #21
ID : 25
Format : UTF-8
Codec ID : S_TEXT/UTF8
Codec ID/Info : UTF-8 Plain Text
Duration : 41 min 29 s
Bit rate : 39 b/s
Count of elements : 425
Stream size : 12.1 KiB (0%)
Title : Türk?e
Language : Turkish
Default : No
Forced : No

Text #22
ID : 26
Format : UTF-8
Codec ID : S_TEXT/UTF8
Codec ID/Info : UTF-8 Plain Text
Duration : 41 min 29 s
Bit rate : 39 b/s
Count of elements : 334
Stream size : 12.0 KiB (0%)
Title : ?e?tina
Language : Czech
Default : No
Forced : No

Text #23
ID : 27
Format : UTF-8
Codec ID : S_TEXT/UTF8
Codec ID/Info : UTF-8 Plain Text
Duration : 41 min 29 s
Bit rate : 70 b/s
Count of elements : 462
Stream size : 21.5 KiB (0%)
Title : Ελληνικ?
Language : Greek
Default : No
Forced : No

Text #24
ID : 28
Format : UTF-8
Codec ID : S_TEXT/UTF8
Codec ID/Info : UTF-8 Plain Text
Duration : 41 min 28 s
Bit rate : 64 b/s
Count of elements : 481
Stream size : 19.7 KiB (0%)
Title : Български
Language : Bulgarian
Default : No
Forced : No

Text #25
ID : 29
Format : UTF-8
Codec ID : S_TEXT/UTF8
Codec ID/Info : UTF-8 Plain Text
Duration : 41 min 29 s
Bit rate : 64 b/s
Count of elements : 378
Stream size : 19.5 KiB (0%)
Title : Македонски
Language : Macedonian
Default : No
Forced : No

Text #26
ID : 30
Format : UTF-8
Codec ID : S_TEXT/UTF8
Codec ID/Info : UTF-8 Plain Text
Duration : 41 min 29 s
Bit rate : 64 b/s
Count of elements : 486
Stream size : 19.5 KiB (0%)
Title : Српски
Language : Serbian
Default : No
Forced : No

Text #27
ID : 31
Format : UTF-8
Codec ID : S_TEXT/UTF8
Codec ID/Info : UTF-8 Plain Text
Duration : 41 min 29 s
Bit rate : 59 b/s
Count of elements : 411
Stream size : 18.0 KiB (0%)
Title : ?????
Language : Hebrew
Default : No
Forced : No

Text #28
ID : 32
Format : UTF-8
Codec ID : S_TEXT/UTF8
Codec ID/Info : UTF-8 Plain Text
Duration : 41 min 29 s
Bit rate : 59 b/s
Count of elements : 443
Stream size : 18.0 KiB (0%)
Title : ???????
Language : Arabic
Default : No
Forced : No

Text #29
ID : 33
Format : UTF-8
Codec ID : S_TEXT/UTF8
Codec ID/Info : UTF-8 Plain Text
Duration : 41 min 38 s
Bit rate : 95 b/s
Count of elements : 371
Stream size : 29.3 KiB (0%)
Title : ???
Language : Thai
Default : No
Forced : No

Text #30
ID : 34
Format : UTF-8
Codec ID : S_TEXT/UTF8
Codec ID/Info : UTF-8 Plain Text
Duration : 41 min 29 s
Bit rate : 36 b/s
Count of elements : 444
Stream size : 11.0 KiB (0%)
Title : 中文(简体)
Language : Chinese
Default : No
Forced : No

Text #31
ID : 35
Format : UTF-8
Codec ID : S_TEXT/UTF8
Codec ID/Info : UTF-8 Plain Text
Duration : 41 min 38 s
Bit rate : 37 b/s
Count of elements : 444
Stream size : 11.5 KiB (0%)
Title : 中文(繁體)
Language : Chinese
Default : No
Forced : No

Text #32
ID : 36
Format : UTF-8
Codec ID : S_TEXT/UTF8
Codec ID/Info : UTF-8 Plain Text
Duration : 41 min 29 s
Bit rate : 30 b/s
Count of elements : 421
Stream size : 9.27 KiB (0%)
Title : 日本語
Language : Japanese
Default : No
Forced : No

Text #33
ID : 37
Format : UTF-8
Codec ID : S_TEXT/UTF8
Codec ID/Info : UTF-8 Plain Text
Duration : 41 min 29 s
Bit rate : 40 b/s
Count of elements : 470
Stream size : 12.3 KiB (0%)
Title : ???
Language : Korean
Default : No
Forced : No

点击图片可查看大图

软字幕无法在截图上展现,HDR版本/杜比视界版本截图会出现颜色异常,请使用支持的设备播放!

部分资源为软字幕,移动端推荐播放器:MxPlayer,nPlayer,infuse ,其他播放器请自行尝试。

部分资源为软字幕,电脑端推荐播放器:PotPlayer,完美解码,KMPLAYER,其他播放器请自行尝试。



1 个附件 售价 大小 下载 时间

Fear.the.Walking.Dead.S02.2016.Amazon.WEB-DL.1080p.HEVC.DDP-Xiaomi[BTBTT].torrent 0 金币 102.42K 1519 次 11月前

#1楼
发帖时间:2023-06-22 21:26:39   |   回复数:0
游客组