BILL36
隐世仙人♂

[2017] [美国] [剧情] [WEB-1080P] 行尸之惧 第三季[全16集][国英多音轨/简繁英字幕].Fear.the.Walking.Dead.S03.2017.Amazon.WEB-DL.1080p.H

-->

完整标题:行尸之惧 第三季[全16集][国英多音轨/简繁英字幕].Fear.the.Walking.Dead.S03.2017.Amazon.WEB-DL.1080p.HEVC.DDP-Xiaomi 22.67GB



◎标  题 行尸之惧 第三季
◎译  名 Cobalt / Fear of The Walking Dead
◎片  名 Fear the Walking Dead Season 3
◎年  代 2017
◎产  地 美国
◎类  别 剧情 / 恐怖
◎语  言 英语
◎IMDb评分 8/10 (4136人评价)
◎IMDb链接 https://www.imdb.com/title/tt5646582/
◎豆瓣评分 6.7/10 (2375人评价)
◎豆瓣链接 https://movie.douban.com/subject/26773029/
◎导  演 安德鲁·伯恩斯坦 Andrew Bernstein
      蜜拉·梅农 Meera Menon
      黛博拉·周 Deborah Chow
      帕科·卡贝萨斯 Paco Cabezas
◎编  剧 罗伯特·柯克曼 Robert Kirkman
      托尼·摩尔 Tony Moore
      阿兰·佩吉·阿里亚加 Alan Page Arriaga
      杰米·奥布莱恩 Jami O'Brien
◎演  员 金·迪肯斯 Kim Dickens
      克利夫·柯蒂斯 Cliff Curtis
      弗兰克·迪兰 Frank Dillane
      阿莉西娅·戴柏南·凯里 Alycia Debnam Carey
      科尔曼·多明戈 Colman Domingo
      梅赛德丝·马索霍 Mercedes Masöhn
      泰勒·桑德斯 Tyler Sanders
      埃里克·斯特拉特梅耶 Eric Stratemeier
      里卡多·查康 Ricardo Chacon
      贾斯汀·雷恩 Justin Rain
      麦克尔·格雷耶斯 Michael Greyeyes
      丹尼尔·沙曼 Daniel Sharman
      萨姆·安德伍德 Sam Underwood
      杰克逊·罗伯特·斯科特 Jackson Robert Scott

◎简  介
    第二季才刚刚播出一集,AMC就宣布续订了第三季,共16集,2017年播出。

##### MediaInfo ######
General
Unique ID : 309075235656986288325791098659963086066 (0xE885B9A2E8854C8A8532F44F815724F2)
Complete name : Fear.the.Walking.Dead.S03E01.2017.Amazon.WEB-DL.1080p.HEVC.DDP-Xiaomi.mkv
Format : Matroska
Format version : Version 4
File size : 1.45 GiB
Duration : 47 min 49 s
Overall bit rate : 4 344 kb/s
Encoded date : UTC 2021-09-28 19:12:24
Writing application : mkvmerge v46.0.0 ('No Deeper Escape') 64-bit
Writing library : libebml v1.3.10 + libmatroska v1.5.2

Video
ID : 1
Format : HEVC
Format/Info : High Efficiency Video Coding
Format profile : Main@L4@Main
Codec ID : V_MPEGH/ISO/HEVC
Duration : 47 min 49 s
Bit rate : 3 059 kb/s
Width : 1 920 pixels
Height : 1 080 pixels
Display aspect ratio : 16:9
Frame rate mode : Constant
Frame rate : 23.976 (24000/1001) FPS
Standard : NTSC
Color space : YUV
Chroma subsampling : 4:2:0
Bit depth : 8 bits
Bits/(Pixel*Frame) : 0.062
Stream size : 1.02 GiB (70%)
Writing library : x265 0.0:[Linux][GCC 4.8.2][64 bit] 8bit+10bit+12bit
Encoding settings : cpuid=1173503 / frame-threads=1 / wpp / no-pmode / no-pme / psnr / ssim / log-level=2 / csvfn=/apollo/env/YoshiEncodingWorkflowActivitiesLinuxEncoding/var/tmp/954823177/20dd82e7-60b3-4943-bbbc-00fbd624478e/10fcc181-aeb8-4e31-a5c0-7c6bc516bf4d_video_1080p_9000kbps.csv / csv-log-level=2 / input-csp=1 / input-res=1920x1080 / interlace=0 / total-frames=0 / level-idc=40 / high-tier=1 / uhd-bd=0 / ref=5 / no-allow-non-conformance / no-repeat-headers / annexb / no-aud / no-hrd / info / hash=0 / no-temporal-layers / no-open-gop / min-keyint=61 / keyint=120 / bframes=5 / b-adapt=2 / b-pyramid / bframe-bias=0 / rc-lookahead=120 / lookahead-slices=0 / scenecut=0 / no-intra-refresh / ctu=64 / min-cu-size=8 / rect / no-amp / max-tu-size=32 / tu-inter-depth=1 / tu-intra-depth=1 / limit-tu=0 / rdoq-level=2 / dynamic-rd=0.00 / no-ssim-rd / signhide / no-tskip / nr-intra=0 / nr-inter=200 / no-constrained-intra / strong-intra-smoothing / max-merge=3 / limit-refs=3 / limit-modes / me=3 / subme=3 / merange=57 / temporal-mvp / weightp / no-weightb / no-analyze-src-pics / deblock=0:0 / no-sao / no-sao-non-deblock / rd=4 / no-early-skip / rskip / no-fast-intra / no-tskip-fast / no-cu-lossless / no-b-intra / rdpenalty=0 / psy-rd=2.00 / psy-rdoq=1.00 / no-rd-refine / analysis-reuse-mode=0 / no-lossless / cbqpoffs=0 / crqpoffs=0 / rc=crf / crf=20.5 / qcomp=0.60 / qpstep=4 / stats-write=0 / stats-read=0 / vbv-maxrate=9000 / vbv-bufsize=12000 / vbv-init=0.9 / crf-max=0.0 / crf-min=0.0 / ipratio=1.40 / pbratio=1.30 / aq-mode=2 / aq-strength=1.00 / no-cutree / zone-count=0 / no-strict-cbr / qg-size=32 / no-rc-grain / qpmax=69 / qpmin=0 / no-const-vbv / sar=1 / overscan=0 / videoformat=2 / range=0 / colorprim=1 / transfer=1 / colormatrix=1 / chromaloc=0 / display-window=0 / max-cll=0,0 / min-luma=0 / max-luma=255 / log2-max-poc-lsb=8 / vui-timing-info / vui-hrd-info / slices=1 / opt-qp-pps / opt-ref-list-length-pps / no-multi-pass-opt-rps / scenecut-bias=0.05 / no-opt-cu-delta-qp / no-aq-motion / no-hdr / no-hdr-opt / no-dhdr10-opt / analysis-reuse-level=5 / scale-factor=0 / refine-intra=0 / refine-inter=0 / refine-mv=0 / no-limit-sao / ctu-info=0
Default : Yes
Forced : No
Color range : Limited
Color primaries : BT.709
Transfer characteristics : BT.709
Matrix coefficients : BT.709

Audio #1
ID : 2
Format : E-AC-3
Format/Info : Enhanced AC-3
Commercial name : Dolby Digital Plus
Codec ID : A_EAC3
Duration : 47 min 49 s
Bit rate mode : Constant
Bit rate : 640 kb/s
Channel(s) : 6 channels
Channel layout : L R C LFE Ls Rs
Sampling rate : 48.0 kHz
Frame rate : 31.250 FPS (1536 SPF)
Compression mode : Lossy
Stream size : 219 MiB (15%)
Title : English
Language : English
Service kind : Complete Main
Default : No
Forced : No

Audio #2
ID : 3
Format : E-AC-3
Format/Info : Enhanced AC-3
Commercial name : Dolby Digital Plus
Codec ID : A_EAC3
Duration : 47 min 49 s
Bit rate mode : Constant
Bit rate : 640 kb/s
Channel(s) : 6 channels
Channel layout : L R C LFE Ls Rs
Sampling rate : 48.0 kHz
Frame rate : 31.250 FPS (1536 SPF)
Compression mode : Lossy
Stream size : 219 MiB (15%)
Title : 中文
Language : Chinese
Service kind : Complete Main
Default : No
Forced : No

Text #1
ID : 4
Format : UTF-8
Codec ID : S_TEXT/UTF8
Codec ID/Info : UTF-8 Plain Text
Duration : 46 min 10 s
Bit rate : 37 b/s
Count of elements : 426
Stream size : 12.6 KiB (0%)
Title : Dansk
Language : Danish
Default : No
Forced : No

Text #2
ID : 5
Format : UTF-8
Codec ID : S_TEXT/UTF8
Codec ID/Info : UTF-8 Plain Text
Duration : 46 min 10 s
Bit rate : 45 b/s
Count of elements : 504
Stream size : 15.5 KiB (0%)
Title : Deutsch
Language : German
Default : No
Forced : No

Text #3
ID : 6
Format : UTF-8
Codec ID : S_TEXT/UTF8
Codec ID/Info : UTF-8 Plain Text
Duration : 47 min 13 s
Bit rate : 52 b/s
Count of elements : 678
Stream size : 18.3 KiB (0%)
Title : English (SDH)
Language : English
Default : No
Forced : No

Text #4
ID : 7
Format : UTF-8
Codec ID : S_TEXT/UTF8
Codec ID/Info : UTF-8 Plain Text
Duration : 46 min 9 s
Bit rate : 41 b/s
Count of elements : 511
Stream size : 14.0 KiB (0%)
Title : Espa?ol (Espa?a)
Language : Spanish
Default : No
Forced : No

Text #5
ID : 8
Format : UTF-8
Codec ID : S_TEXT/UTF8
Codec ID/Info : UTF-8 Plain Text
Duration : 46 min 10 s
Bit rate : 45 b/s
Count of elements : 555
Stream size : 15.5 KiB (0%)
Title : Espa?ol (Latinoamérica)
Language : Spanish
Default : No
Forced : No

Text #6
ID : 9
Format : UTF-8
Codec ID : S_TEXT/UTF8
Codec ID/Info : UTF-8 Plain Text
Duration : 47 min 5 s
Bit rate : 33 b/s
Count of elements : 496
Stream size : 11.7 KiB (0%)
Title : Fran?ais
Language : French
Default : No
Forced : No

Text #7
ID : 10
Format : UTF-8
Codec ID : S_TEXT/UTF8
Codec ID/Info : UTF-8 Plain Text
Duration : 46 min 9 s
Bit rate : 40 b/s
Count of elements : 520
Stream size : 13.7 KiB (0%)
Title : Hrvatski
Language : Croatian
Default : No
Forced : No

Text #8
ID : 11
Format : UTF-8
Codec ID : S_TEXT/UTF8
Codec ID/Info : UTF-8 Plain Text
Duration : 46 min 53 s
Bit rate : 45 b/s
Count of elements : 547
Stream size : 15.8 KiB (0%)
Title : Indonesia
Language : Indonesian
Default : No
Forced : No

Text #9
ID : 12
Format : UTF-8
Codec ID : S_TEXT/UTF8
Codec ID/Info : UTF-8 Plain Text
Duration : 46 min 9 s
Bit rate : 40 b/s
Count of elements : 502
Stream size : 13.7 KiB (0%)
Title : Italiano
Language : Italian
Default : No
Forced : No

Text #10
ID : 13
Format : UTF-8
Codec ID : S_TEXT/UTF8
Codec ID/Info : UTF-8 Plain Text
Duration : 46 min 9 s
Bit rate : 40 b/s
Count of elements : 516
Stream size : 13.6 KiB (0%)
Title : Magyar
Language : Hungarian
Default : No
Forced : No

Text #11
ID : 14
Format : UTF-8
Codec ID : S_TEXT/UTF8
Codec ID/Info : UTF-8 Plain Text
Duration : 46 min 9 s
Bit rate : 37 b/s
Count of elements : 460
Stream size : 12.7 KiB (0%)
Title : Nederlands
Language : Dutch
Default : No
Forced : No

Text #12
ID : 15
Format : UTF-8
Codec ID : S_TEXT/UTF8
Codec ID/Info : UTF-8 Plain Text
Duration : 46 min 10 s
Bit rate : 37 b/s
Count of elements : 427
Stream size : 12.8 KiB (0%)
Title : Norsk Bokm?l
Language : Norwegian Bokmal
Default : No
Forced : No

Text #13
ID : 16
Format : UTF-8
Codec ID : S_TEXT/UTF8
Codec ID/Info : UTF-8 Plain Text
Duration : 46 min 9 s
Bit rate : 29 b/s
Count of elements : 470
Stream size : 9.82 KiB (0%)
Title : Polski
Language : Polish
Default : No
Forced : No

Text #14
ID : 17
Format : UTF-8
Codec ID : S_TEXT/UTF8
Codec ID/Info : UTF-8 Plain Text
Duration : 46 min 9 s
Bit rate : 44 b/s
Count of elements : 517
Stream size : 15.1 KiB (0%)
Title : Português (Brasil)
Language : Portuguese
Default : No
Forced : No

Text #15
ID : 18
Format : UTF-8
Codec ID : S_TEXT/UTF8
Codec ID/Info : UTF-8 Plain Text
Duration : 46 min 9 s
Bit rate : 42 b/s
Count of elements : 512
Stream size : 14.2 KiB (0%)
Title : Português (Portugal)
Language : Portuguese
Default : No
Forced : No

Text #16
ID : 19
Format : UTF-8
Codec ID : S_TEXT/UTF8
Codec ID/Info : UTF-8 Plain Text
Duration : 46 min 10 s
Bit rate : 38 b/s
Count of elements : 498
Stream size : 13.1 KiB (0%)
Title : Roman?
Language : Romanian
Default : No
Forced : No

Text #17
ID : 20
Format : UTF-8
Codec ID : S_TEXT/UTF8
Codec ID/Info : UTF-8 Plain Text
Duration : 46 min 10 s
Bit rate : 45 b/s
Count of elements : 500
Stream size : 15.3 KiB (0%)
Title : Shqip
Language : Albanian
Default : No
Forced : No

Text #18
ID : 21
Format : UTF-8
Codec ID : S_TEXT/UTF8
Codec ID/Info : UTF-8 Plain Text
Duration : 46 min 9 s
Bit rate : 38 b/s
Count of elements : 451
Stream size : 13.0 KiB (0%)
Title : Sloven??ina
Language : Slovenian
Default : No
Forced : No

Text #19
ID : 22
Format : UTF-8
Codec ID : S_TEXT/UTF8
Codec ID/Info : UTF-8 Plain Text
Duration : 46 min 10 s
Bit rate : 38 b/s
Count of elements : 425
Stream size : 12.9 KiB (0%)
Title : Suomi
Language : Finnish
Default : No
Forced : No

Text #20
ID : 23
Format : UTF-8
Codec ID : S_TEXT/UTF8
Codec ID/Info : UTF-8 Plain Text
Duration : 46 min 10 s
Bit rate : 38 b/s
Count of elements : 425
Stream size : 13.1 KiB (0%)
Title : Svenska
Language : Swedish
Default : No
Forced : No

Text #21
ID : 24
Format : UTF-8
Codec ID : S_TEXT/UTF8
Codec ID/Info : UTF-8 Plain Text
Duration : 46 min 9 s
Bit rate : 40 b/s
Count of elements : 518
Stream size : 13.5 KiB (0%)
Title : Türk?e
Language : Turkish
Default : No
Forced : No

Text #22
ID : 25
Format : UTF-8
Codec ID : S_TEXT/UTF8
Codec ID/Info : UTF-8 Plain Text
Duration : 46 min 9 s
Bit rate : 38 b/s
Count of elements : 379
Stream size : 13.0 KiB (0%)
Title : ?e?tina
Language : Czech
Default : No
Forced : No

Text #23
ID : 26
Format : UTF-8
Codec ID : S_TEXT/UTF8
Codec ID/Info : UTF-8 Plain Text
Duration : 46 min 9 s
Bit rate : 71 b/s
Count of elements : 502
Stream size : 24.0 KiB (0%)
Title : Ελληνικ?
Language : Greek
Default : No
Forced : No

Text #24
ID : 27
Format : UTF-8
Codec ID : S_TEXT/UTF8
Codec ID/Info : UTF-8 Plain Text
Duration : 46 min 9 s
Bit rate : 62 b/s
Count of elements : 518
Stream size : 21.1 KiB (0%)
Title : Български
Language : Bulgarian
Default : No
Forced : No

Text #25
ID : 28
Format : UTF-8
Codec ID : S_TEXT/UTF8
Codec ID/Info : UTF-8 Plain Text
Duration : 46 min 10 s
Bit rate : 71 b/s
Count of elements : 520
Stream size : 24.2 KiB (0%)
Title : Македонски
Language : Macedonian
Default : No
Forced : No

Text #26
ID : 29
Format : UTF-8
Codec ID : S_TEXT/UTF8
Codec ID/Info : UTF-8 Plain Text
Duration : 46 min 9 s
Bit rate : 64 b/s
Count of elements : 514
Stream size : 21.9 KiB (0%)
Title : Српски (?ирилица)
Language : Serbian
Default : No
Forced : No

Text #27
ID : 30
Format : UTF-8
Codec ID : S_TEXT/UTF8
Codec ID/Info : UTF-8 Plain Text
Duration : 46 min 9 s
Bit rate : 60 b/s
Count of elements : 488
Stream size : 20.6 KiB (0%)
Title : ?????
Language : Hebrew
Default : No
Forced : No

Text #28
ID : 31
Format : UTF-8
Codec ID : S_TEXT/UTF8
Codec ID/Info : UTF-8 Plain Text
Duration : 46 min 9 s
Bit rate : 57 b/s
Count of elements : 512
Stream size : 19.4 KiB (0%)
Title : ???????
Language : Arabic
Default : No
Forced : No

Text #29
ID : 32
Format : UTF-8
Codec ID : S_TEXT/UTF8
Codec ID/Info : UTF-8 Plain Text
Duration : 46 min 53 s
Bit rate : 93 b/s
Count of elements : 484
Stream size : 32.1 KiB (0%)
Title : ???
Language : Thai
Default : No
Forced : No

Text #30
ID : 33
Format : UTF-8
Codec ID : S_TEXT/UTF8
Codec ID/Info : UTF-8 Plain Text
Duration : 47 min 13 s
Bit rate : 38 b/s
Count of elements : 562
Stream size : 13.3 KiB (0%)
Title : 中文(简体)
Language : Chinese
Default : No
Forced : No

Text #31
ID : 34
Format : UTF-8
Codec ID : S_TEXT/UTF8
Codec ID/Info : UTF-8 Plain Text
Duration : 46 min 9 s
Bit rate : 39 b/s
Count of elements : 577
Stream size : 13.4 KiB (0%)
Title : 中文(繁體)
Language : Chinese
Default : No
Forced : No

Text #32
ID : 35
Format : UTF-8
Codec ID : S_TEXT/UTF8
Codec ID/Info : UTF-8 Plain Text
Duration : 46 min 8 s
Bit rate : 26 b/s
Count of elements : 462
Stream size : 8.98 KiB (0%)
Title : 日本語
Language : Japanese
Default : No
Forced : No

Text #33
ID : 36
Format : UTF-8
Codec ID : S_TEXT/UTF8
Codec ID/Info : UTF-8 Plain Text
Duration : 46 min 9 s
Bit rate : 47 b/s
Count of elements : 516
Stream size : 15.9 KiB (0%)
Title : ???
Language : Korean
Default : No
Forced : No

点击图片可查看大图

软字幕无法在截图上展现,HDR版本/杜比视界版本截图会出现颜色异常,请使用支持的设备播放!

部分资源为软字幕,移动端推荐播放器:MxPlayer,nPlayer,infuse ,其他播放器请自行尝试。

部分资源为软字幕,电脑端推荐播放器:PotPlayer,完美解码,KMPLAYER,其他播放器请自行尝试。



1 个附件 售价 大小 下载 时间

Fear.the.Walking.Dead.S03.2017.Amazon.WEB-DL.1080p.HEVC.DDP-Xiaomi[BTBTT].torrent 0 金币 61.19K 1659 次 12月前

#1楼
发帖时间:2023-06-22 21:27:13   |   回复数:0
游客组