BILL36
隐世仙人♂

[2023] [日本] [爱情] [WEB-1080P] 没听说离婚后这么受欢迎[全6集][中文字幕].Batsuichi.ga.Moteru.nante.Kiitemasen.S01.1080p.WEB-DL.AAC

-->

完整标题:没听说离婚后这么受欢迎[全6集][中文字幕].Batsuichi.ga.Moteru.nante.Kiitemasen.S01.1080p.WEB-DL.AAC2.0.H.264-BlackTV 4.01GB



◎标  题 没听说离婚后这么受欢迎
◎片  名 バツイチがモテるなんて聞いてません
◎年  代 2023
◎产  地 日本
◎类  别 爱情
◎语  言 日语
◎IMDb链接 https://www.imdb.com/title//
◎豆瓣评分 5.3/10 (145人评价)
◎豆瓣链接 https://movie.douban.com/subject/36243981/
◎导  演 山口雄也 Yûya Yamaguchi
◎演  员 高梨临 Rin Takanashi
      纲启永 Keito Tsuna
      盐野瑛久 Akihisa Shiono
      远山俊也 Toshiya Tôyama
      余贵美子 Kimiko Yo

◎简  介
    亀奈ゆうの同名マンガをもとにした本作は、夫の不倫が原因でバツイチになった35歳の主人公・小野和葉と、彼女に好意を寄せる新入社員・満井絢斗が繰り広げるラブストーリー。

##### MediaInfo ######
General
Unique ID : 106246727229067727488959659855911348357 (0x4FEE6016B2F6B0025B397E14AACC6885)
Complete name : Batsuichi.ga.Moteru.nante.Kiitemasen.S01E01.1080p.WEB-DL.AAC2.0.H.264-BlackTV.mkv
Format : Matroska
Format version : Version 4
File size : 684 MiB
Duration : 24 min 7 s
Overall bit rate : 3 965 kb/s
Encoded date : UTC 2023-03-22 00:21:33
Writing application : mkvmerge v69.0.0 ('Day And Age') 64-bit
Writing library : libebml v1.4.2 + libmatroska v1.6.4

Video
ID : 1
Format : AVC
Format/Info : Advanced Video Codec
Format profile : [email protected]
Format settings : CABAC / 1 Ref Frames
Format settings, CABAC : Yes
Format settings, Reference frames : 1 frame
Format settings, GOP : M=1, N=60
Codec ID : V_MPEG4/ISO/AVC
Duration : 24 min 7 s
Bit rate mode : Constant
Bit rate : 4 000 kb/s
Width : 1 920 pixels
Height : 1 080 pixels
Display aspect ratio : 16:9
Frame rate mode : Constant
Frame rate : 29.970 (30000/1001) FPS
Color space : YUV
Chroma subsampling : 4:2:0
Bit depth : 8 bits
Scan type : Progressive
Bits/(Pixel*Frame) : 0.064
Stream size : 662 MiB (97%)
Default : Yes
Forced : No

Audio
ID : 2
Format : AAC LC
Format/Info : Advanced Audio Codec Low Complexity
Codec ID : A_AAC-2
Duration : 24 min 7 s
Bit rate : 125 kb/s
Channel(s) : 2 channels
Channel layout : L R
Sampling rate : 48.0 kHz
Frame rate : 46.875 FPS (1024 SPF)
Compression mode : Lossy
Stream size : 21.6 MiB (3%)
Language : Japanese
Default : No
Forced : No

点击图片可查看大图

软字幕无法在截图上展现,HDR版本/杜比视界版本截图会出现颜色异常,请使用支持的设备播放!

部分资源为软字幕,移动端推荐播放器:MxPlayer,nPlayer,infuse ,其他播放器请自行尝试。

部分资源为软字幕,电脑端推荐播放器:PotPlayer,完美解码,KMPLAYER,其他播放器请自行尝试。



1 个附件 售价 大小 下载 时间

Batsuichi.ga.Moteru.nante.Kiitemasen.S01.1080p.WEB-DL.AAC2.0.H.264-BlackTV[BTBTT].torrent 0 金币 13.56K 308 次 12月前

#1楼
发帖时间:2023-06-22 21:27:48   |   回复数:0
游客组