BILL36
隐世仙人♂

[2023] [其它] [喜剧] [WEB-1080P] 吸血牙仙:当爱反咬一口[全8集][简繁英字幕].Tooth.Pari.When.Love.Bites.S01.1080p.NF.WEB-DL.DDP5.1.At

-->

完整标题:吸血牙仙:当爱反咬一口[全8集][简繁英字幕].Tooth.Pari.When.Love.Bites.S01.1080p.NF.WEB-DL.DDP5.1.Atmos.H.264-BlackTV 14.11GB



◎标  题 吸血牙仙:当爱反咬一口
◎译  名 ToothPari
◎片  名 Tooth Pari: When Love Bites
◎年  代 2023
◎产  地 印度
◎类  别 喜剧 / 爱情 / 奇幻
◎语  言 印度语
◎IMDb评分 8/10 (554人评价)
◎IMDb链接 https://www.imdb.com/title/tt27191658/
◎豆瓣链接 https://movie.douban.com/subject/36334579/

◎简  介
    A rebellious vampire with a broken tooth falls for a shy dentist on the streets of Kolkata but will human and mystical forces keep them apart?

##### MediaInfo ######
General
Unique ID : 318556587509164933506674531858413262230 (0xEFA7C45FC91936D69B94F57127301596)
Complete name : Tooth.Pari.When.Love.Bites.S01E01.Upar.Neeche.1080p.NF.WEB-DL.DDP.5.1.Atmos.H.264-BlackTV.mkv
Format : Matroska
Format version : Version 4
File size : 1.83 GiB
Duration : 45 min 42 s
Overall bit rate mode : Variable
Overall bit rate : 5 725 kb/s
Encoded date : UTC 2023-04-25 04:21:44
Writing application : mkvmerge v71.1.0 ('Fortitude') 64-bit
Writing library : libebml v1.4.4 + libmatroska v1.7.1
Muxer : CHDBits WEB Group

Video
ID : 1
Format : AVC
Format/Info : Advanced Video Codec
Format profile : Main@L4
Format settings : CABAC / 3 Ref Frames
Format settings, CABAC : Yes
Format settings, Reference frames : 3 frames
Codec ID : V_MPEG4/ISO/AVC
Duration : 45 min 42 s
Bit rate mode : Variable
Bit rate : 5 000 kb/s
Maximum bit rate : 7 500 kb/s
Width : 1 920 pixels
Height : 1 080 pixels
Display aspect ratio : 16:9
Frame rate mode : Constant
Frame rate : 24.000 FPS
Color space : YUV
Chroma subsampling : 4:2:0
Bit depth : 8 bits
Scan type : Progressive
Bits/(Pixel*Frame) : 0.100
Stream size : 1.58 GiB (87%)
Writing library : x264 core 148 r2727 7d026e8
Encoding settings : cabac=1 / ref=3 / deblock=1:0:0 / analyse=0x1:0x111 / me=umh / subme=10 / psy=1 / psy_rd=1.00:0.00 / mixed_ref=1 / me_range=24 / chroma_me=1 / trellis=2 / 8x8dct=0 / cqm=0 / deadzone=21,11 / fast_pskip=1 / chroma_qp_offset=-2 / threads=8 / lookahead_threads=1 / sliced_threads=0 / nr=0 / decimate=1 / interlaced=0 / bluray_compat=0 / stitchable=1 / constrained_intra=0 / bframes=2 / b_pyramid=0 / b_adapt=2 / b_bias=0 / direct=3 / weightb=1 / open_gop=0 / weightp=2 / keyint=48 / keyint_min=25 / scenecut=0 / intra_refresh=0 / rc_lookahead=48 / rc=2pass / mbtree=1 / bitrate=5000 / ratetol=1.0 / qcomp=0.50 / qpmin=6 / qpmax=51 / qpstep=4 / cplxblur=20.0 / qblur=0.5 / vbv_maxrate=7500 / vbv_bufsize=10000 / nal_hrd=vbr / filler=0 / ip_ratio=1.40 / aq=1:1.00
Language : Hindi
Default : Yes
Forced : No

Audio
ID : 2
Format : E-AC-3 JOC
Format/Info : Enhanced AC-3 with Joint Object Coding
Commercial name : Dolby Digital Plus with Dolby Atmos
Codec ID : A_EAC3
Duration : 45 min 42 s
Bit rate mode : Constant
Bit rate : 768 kb/s
Channel(s) : 6 channels
Channel layout : L R C LFE Ls Rs
Sampling rate : 48.0 kHz
Frame rate : 31.250 FPS (1536 SPF)
Compression mode : Lossy
Stream size : 251 MiB (13%)
Language : Hindi
Service kind : Complete Main
Default : Yes
Forced : No
Complexity index : 16
Number of dynamic objects : 15
Bed channel count : 1 channel
Bed channel configuration : LFE

Text #1
ID : 3
Format : UTF-8
Codec ID : S_TEXT/UTF8
Codec ID/Info : UTF-8 Plain Text
Duration : 44 min 48 s
Bit rate : 56 b/s
Count of elements : 623
Stream size : 18.6 KiB (0%)
Title : Simplified
Language : Chinese
Default : No
Forced : No

Text #2
ID : 4
Format : UTF-8
Codec ID : S_TEXT/UTF8
Codec ID/Info : UTF-8 Plain Text
Duration : 44 min 48 s
Bit rate : 52 b/s
Count of elements : 621
Stream size : 17.3 KiB (0%)
Title : Traditional
Language : Chinese
Default : No
Forced : No

Text #3
ID : 5
Format : UTF-8
Codec ID : S_TEXT/UTF8
Codec ID/Info : UTF-8 Plain Text
Duration : 41 min 52 s
Bit rate : 55 b/s
Count of elements : 617
Stream size : 17.1 KiB (0%)
Language : English
Default : No
Forced : No

Text #4
ID : 6
Format : UTF-8
Codec ID : S_TEXT/UTF8
Codec ID/Info : UTF-8 Plain Text
Duration : 41 min 58 s
Bit rate : 64 b/s
Count of elements : 630
Stream size : 19.8 KiB (0%)
Title : India (SDH)
Language : English
Default : No
Forced : No

Menu
00:42:14.000 : en:End Credits

点击图片可查看大图

软字幕无法在截图上展现,HDR版本/杜比视界版本截图会出现颜色异常,请使用支持的设备播放!

部分资源为软字幕,移动端推荐播放器:MxPlayer,nPlayer,infuse ,其他播放器请自行尝试。

部分资源为软字幕,电脑端推荐播放器:PotPlayer,完美解码,KMPLAYER,其他播放器请自行尝试。



1 个附件 售价 大小 下载 时间

Tooth.Pari.When.Love.Bites.S01.1080p.NF.WEB-DL.DDP5.1.Atmos.H.264-BlackTV[BTBTT].torrent 0 金币 39.15K 105 次 12月前

#1楼
发帖时间:2023-06-22 21:27:58   |   回复数:0
游客组