BILL36
隐世仙人♂

[2023] [法国] [惊悚] [WEB-1080P] 黑暗旋涡 第一季[全8集][简繁英字幕].Thicker.Than.Water.S01.1080p.NF.WEB-DL.DDP5.1.H.264-BlackTV

-->

完整标题:黑暗旋涡 第一季[全8集][简繁英字幕].Thicker.Than.Water.S01.1080p.NF.WEB-DL.DDP5.1.H.264-BlackTV 12.65GB



◎标  题 黑暗旋涡 第一季
◎译  名 Thicker Than Water Season 1
◎片  名 Jusqu’ici tout va bien
◎年  代 2023
◎产  地 法国
◎类  别 惊悚 / 犯罪
◎语  言 法语
◎IMDb评分 5.7/10 (372人评价)
◎IMDb链接 https://www.imdb.com/title/tt27124268/
◎豆瓣链接 https://movie.douban.com/subject/36334581/
◎编  剧 娜威尔·玛达尼 Nawell Madani
◎演  员 娜威尔·玛达尼 Nawell Madani

◎简  介
    因包庇弟弟逃避法律制裁,这名记者的生活变得一团糟,而她的家人也无意中被卷入一名毒枭的残忍计划。

##### MediaInfo ######
General
Unique ID : 296824698979817196614493369303158236859 (0xDF4E5B8BAAB13CCA802C19D2DF2C26BB)
Complete name : Thicker.Than.Water.S01E01.This.Stays.Between.Us.1080p.NF.WEB-DL.DDP.5.1.H.264-BlackTV.mkv
Format : Matroska
Format version : Version 4
File size : 1.39 GiB
Duration : 30 min 30 s
Overall bit rate mode : Variable
Overall bit rate : 6 533 kb/s
Encoded date : UTC 2023-04-25 04:40:28
Writing application : mkvmerge v71.1.0 ('Fortitude') 64-bit
Writing library : libebml v1.4.4 + libmatroska v1.7.1
Muxer : CHDBits WEB Group

Video
ID : 1
Format : AVC
Format/Info : Advanced Video Codec
Format profile : High@L4
Format settings : CABAC / 4 Ref Frames
Format settings, CABAC : Yes
Format settings, Reference frames : 4 frames
Codec ID : V_MPEG4/ISO/AVC
Duration : 30 min 28 s
Bit rate mode : Variable
Bit rate : 5 897 kb/s
Maximum bit rate : 20.0 Mb/s
Width : 1 920 pixels
Height : 1 080 pixels
Display aspect ratio : 16:9
Frame rate mode : Constant
Frame rate : 25.000 FPS
Color space : YUV
Chroma subsampling : 4:2:0
Bit depth : 8 bits
Scan type : Progressive
Bits/(Pixel*Frame) : 0.114
Stream size : 1.26 GiB (90%)
Writing library : x264 core 148 r2727 7d026e8
Encoding settings : cabac=1 / ref=4 / deblock=1:0:0 / analyse=0x3:0x111 / me=umh / subme=10 / psy=1 / psy_rd=1.00:0.00 / mixed_ref=1 / me_range=120 / chroma_me=1 / trellis=2 / 8x8dct=1 / cqm=0 / deadzone=21,11 / fast_pskip=1 / chroma_qp_offset=-2 / threads=6 / lookahead_threads=1 / sliced_threads=0 / nr=0 / decimate=1 / interlaced=0 / bluray_compat=0 / stitchable=1 / constrained_intra=0 / bframes=16 / b_pyramid=2 / b_adapt=2 / b_bias=0 / direct=3 / weightb=1 / open_gop=0 / weightp=2 / keyint=250 / keyint_min=126 / scenecut=0 / intra_refresh=0 / rc_lookahead=250 / rc=crf / mbtree=1 / crf=18.0 / qcomp=0.50 / qpmin=6 / qpmax=51 / qpstep=4 / vbv_maxrate=20000 / vbv_bufsize=25000 / crf_max=0.0 / nal_hrd=vbr / filler=0 / ip_ratio=1.40 / aq=1:0.80
Language : French
Default : Yes
Forced : No

Audio
ID : 2
Format : E-AC-3
Format/Info : Enhanced AC-3
Commercial name : Dolby Digital Plus
Codec ID : A_EAC3
Duration : 30 min 30 s
Bit rate mode : Constant
Bit rate : 640 kb/s
Channel(s) : 6 channels
Channel layout : L R C LFE Ls Rs
Sampling rate : 48.0 kHz
Frame rate : 31.250 FPS (1536 SPF)
Compression mode : Lossy
Stream size : 140 MiB (10%)
Language : French
Service kind : Complete Main
Default : Yes
Forced : No

Text #1
ID : 3
Format : UTF-8
Codec ID : S_TEXT/UTF8
Codec ID/Info : UTF-8 Plain Text
Duration : 29 min 16 s
Bit rate : 89 b/s
Count of elements : 534
Stream size : 19.3 KiB (0%)
Title : Simplified
Language : Chinese
Default : No
Forced : No

Text #2
ID : 4
Format : UTF-8
Codec ID : S_TEXT/UTF8
Codec ID/Info : UTF-8 Plain Text
Duration : 29 min 16 s
Bit rate : 91 b/s
Count of elements : 534
Stream size : 19.5 KiB (0%)
Title : Traditional
Language : Chinese
Default : No
Forced : No

Text #3
ID : 5
Format : UTF-8
Codec ID : S_TEXT/UTF8
Codec ID/Info : UTF-8 Plain Text
Duration : 27 min 50 s
Bit rate : 121 b/s
Count of elements : 662
Stream size : 24.8 KiB (0%)
Title : SDH
Language : English
Default : No
Forced : No

Text #4
ID : 6
Format : UTF-8
Codec ID : S_TEXT/UTF8
Codec ID/Info : UTF-8 Plain Text
Duration : 27 min 48 s
Bit rate : 103 b/s
Count of elements : 576
Stream size : 21.2 KiB (0%)
Language : English
Default : No
Forced : No

Text #5
ID : 7
Format : UTF-8
Codec ID : S_TEXT/UTF8
Codec ID/Info : UTF-8 Plain Text
Duration : 29 min 16 s
Bit rate : 82 b/s
Count of elements : 510
Stream size : 17.6 KiB (0%)
Language : English
Default : No
Forced : No

Menu
00:28:00.000 : en:End Credits

点击图片可查看大图

软字幕无法在截图上展现,HDR版本/杜比视界版本截图会出现颜色异常,请使用支持的设备播放!

部分资源为软字幕,移动端推荐播放器:MxPlayer,nPlayer,infuse ,其他播放器请自行尝试。

部分资源为软字幕,电脑端推荐播放器:PotPlayer,完美解码,KMPLAYER,其他播放器请自行尝试。



1 个附件 售价 大小 下载 时间

Thicker.Than.Water.S01.1080p.NF.WEB-DL.DDP5.1.H.264-BlackTV[BTBTT].torrent 0 金币 35.37K 175 次 12月前

#1楼
发帖时间:2023-06-22 21:28:03   |   回复数:0
游客组