BILL36
隐世仙人♂

[2023] [其它] [剧情] [WEB-1080P] 钻石荆途[全8集][简繁英字幕].Rough.Diamonds.S01.1080p.NF.WEB-DL.DDP5.1.H.264-BlackTV 16.03GB

-->

完整标题:钻石荆途[全8集][简繁英字幕].Rough.Diamonds.S01.1080p.NF.WEB-DL.DDP5.1.H.264-BlackTV 16.03GB



◎标  题 钻石荆途
◎译  名 Rough Diamonds
◎片  名 Diamonds
◎年  代 2023
◎产  地 比利时
◎类  别 剧情 / 惊悚 / 犯罪
◎语  言 荷兰语
◎IMDb评分 7.3/10 (285人评价)
◎IMDb链接 https://www.imdb.com/title/tt15469192/
◎豆瓣链接 https://movie.douban.com/subject/36340881/
◎演  员 凯文·扬森斯 Kevin Janssens
      Marie Vinck Marie Vinck
      Ini Massez
      卡斯帕·诺夫 Casper Knopf
      罗比·克莱伦 Robbie Cleiren
      埃尔斯·多特曼斯 Els Dottermans
      Yona Elian Yona Elian
      蒂内·朱斯特拉 Tine Joustra
      吉恩·伯沃依兹 Gene Bervoets

◎简  介
    讲述了比利时安特卫普钻石广场的一个犹太极端正统派家庭。

##### MediaInfo ######
General
Unique ID : 259374830321033459242700403303513592805 (0xC321C677047E129751F11EFA87D813E5)
Complete name : Rough.Diamonds.S01E01.Episode.1.1080p.NF.WEB-DL.DDP.5.1.H.264-BlackTV.mkv
Format : Matroska
Format version : Version 4
File size : 1.99 GiB
Duration : 51 min 20 s
Overall bit rate mode : Variable
Overall bit rate : 5 548 kb/s
Encoded date : UTC 2023-04-25 04:08:24
Writing application : mkvmerge v71.1.0 ('Fortitude') 64-bit
Writing library : libebml v1.4.4 + libmatroska v1.7.1
Muxer : CHDBits WEB Group

Video
ID : 1
Format : AVC
Format/Info : Advanced Video Codec
Format profile : Main@L4
Format settings : CABAC / 3 Ref Frames
Format settings, CABAC : Yes
Format settings, Reference frames : 3 frames
Codec ID : V_MPEG4/ISO/AVC
Duration : 51 min 20 s
Bit rate mode : Variable
Bit rate : 5 000 kb/s
Maximum bit rate : 7 500 kb/s
Width : 1 920 pixels
Height : 1 080 pixels
Display aspect ratio : 16:9
Frame rate mode : Constant
Frame rate : 25.000 FPS
Color space : YUV
Chroma subsampling : 4:2:0
Bit depth : 8 bits
Scan type : Progressive
Bits/(Pixel*Frame) : 0.096
Stream size : 1.76 GiB (88%)
Writing library : x264 core 148 r2727 7d026e8
Encoding settings : cabac=1 / ref=3 / deblock=1:0:0 / analyse=0x1:0x111 / me=umh / subme=10 / psy=1 / psy_rd=1.00:0.00 / mixed_ref=1 / me_range=24 / chroma_me=1 / trellis=2 / 8x8dct=0 / cqm=0 / deadzone=21,11 / fast_pskip=1 / chroma_qp_offset=-2 / threads=8 / lookahead_threads=1 / sliced_threads=0 / nr=0 / decimate=1 / interlaced=0 / bluray_compat=0 / stitchable=1 / constrained_intra=0 / bframes=2 / b_pyramid=0 / b_adapt=2 / b_bias=0 / direct=3 / weightb=1 / open_gop=0 / weightp=2 / keyint=50 / keyint_min=26 / scenecut=0 / intra_refresh=0 / rc_lookahead=50 / rc=2pass / mbtree=1 / bitrate=5000 / ratetol=1.0 / qcomp=0.50 / qpmin=6 / qpmax=51 / qpstep=4 / cplxblur=20.0 / qblur=0.5 / vbv_maxrate=7500 / vbv_bufsize=10000 / nal_hrd=vbr / filler=0 / ip_ratio=1.40 / aq=1:1.00
Language : Dutch
Default : Yes
Forced : No

Audio
ID : 2
Format : E-AC-3
Format/Info : Enhanced AC-3
Commercial name : Dolby Digital Plus
Codec ID : A_EAC3
Duration : 51 min 20 s
Bit rate mode : Constant
Bit rate : 640 kb/s
Channel(s) : 6 channels
Channel layout : L R C LFE Ls Rs
Sampling rate : 48.0 kHz
Frame rate : 31.250 FPS (1536 SPF)
Compression mode : Lossy
Stream size : 235 MiB (12%)
Title : Belgium
Language : Dutch
Service kind : Complete Main
Default : Yes
Forced : No

Text #1
ID : 3
Format : UTF-8
Codec ID : S_TEXT/UTF8
Codec ID/Info : UTF-8 Plain Text
Duration : 49 min 55 s
Bit rate : 56 b/s
Count of elements : 583
Stream size : 20.8 KiB (0%)
Title : Simplified
Language : Chinese
Default : No
Forced : No

Text #2
ID : 4
Format : UTF-8
Codec ID : S_TEXT/UTF8
Codec ID/Info : UTF-8 Plain Text
Duration : 49 min 55 s
Bit rate : 54 b/s
Count of elements : 583
Stream size : 19.9 KiB (0%)
Title : Traditional
Language : Chinese
Default : No
Forced : No

Text #3
ID : 5
Format : UTF-8
Codec ID : S_TEXT/UTF8
Codec ID/Info : UTF-8 Plain Text
Duration : 49 min 46 s
Bit rate : 70 b/s
Count of elements : 707
Stream size : 25.6 KiB (0%)
Title : SDH
Language : English
Default : No
Forced : No

Text #4
ID : 6
Format : UTF-8
Codec ID : S_TEXT/UTF8
Codec ID/Info : UTF-8 Plain Text
Duration : 49 min 31 s
Bit rate : 59 b/s
Count of elements : 575
Stream size : 21.5 KiB (0%)
Language : English
Default : No
Forced : No

Text #5
ID : 7
Format : UTF-8
Codec ID : S_TEXT/UTF8
Codec ID/Info : UTF-8 Plain Text
Duration : 49 min 31 s
Bit rate : 46 b/s
Count of elements : 447
Stream size : 16.9 KiB (0%)
Language : English
Default : No
Forced : No

Menu
00:49:52.000 : en:End Credits

点击图片可查看大图

软字幕无法在截图上展现,HDR版本/杜比视界版本截图会出现颜色异常,请使用支持的设备播放!

部分资源为软字幕,移动端推荐播放器:MxPlayer,nPlayer,infuse ,其他播放器请自行尝试。

部分资源为软字幕,电脑端推荐播放器:PotPlayer,完美解码,KMPLAYER,其他播放器请自行尝试。



1 个附件 售价 大小 下载 时间

Rough.Diamonds.S01.1080p.NF.WEB-DL.DDP5.1.H.264-BlackTV[BTBTT].torrent 0 金币 43.75K 189 次 12月前

#1楼
发帖时间:2023-06-22 21:28:13   |   回复数:0
游客组