BILL36
隐世仙人♂

[2023] [英国] [剧情] [WEB-1080P] 情劫[全4集][国语配音/中文字幕].Obsession.S01.1080p.NF.WEB-DL.DDP5.1.Atmos.H.264-BlackTV 7.14

-->

完整标题:情劫[全4集][国语配音/中文字幕].Obsession.S01.1080p.NF.WEB-DL.DDP5.1.Atmos.H.264-BlackTV 7.14GB



◎标  题 情劫
◎译  名 禁忌痴恋
◎片  名 Obsession
◎年  代 2023
◎产  地 英国
◎类  别 剧情 / 爱情 / 悬疑 / 惊悚
◎语  言 英语
◎IMDb评分 5.1/10 (4584人评价)
◎IMDb链接 https://www.imdb.com/title/tt18831118/
◎豆瓣评分 5.4/10 (1332人评价)
◎豆瓣链接 https://movie.douban.com/subject/35807426/
◎导  演 格伦·雷伯恩 Glenn Leyburn
      丽莎·巴罗斯·德萨 Lisa Barros D'Sa
◎编  剧 约瑟芬·哈特 Josephine Hart
◎演  员 理查德·阿米蒂奇 Richard Armitage
      夏莉·墨菲 Charlie Murphy
      因迪拉·瓦玛 Indira Varma
      里什·沙阿 Rish Shah
      玛丽昂·贝利 Marion Bailey
      索内拉·安吉尔 Sonera Angel
      皮帕·贝内特-华纳 Pippa Bennett-Warner
      维克多·彭泰科沃 Victor Pontecorvo
      Celine Abrahams Celine Abrahams
      弗朗西丝卡·奈特 Francesca Knight
      莱迪·托马斯 Letty Thomas

◎简  介
    本剧改编自Josephine Hart的同名小说,聚焦一场危机四伏的三角恋。   令人难以捉摸的Anna Barton与Jay早已订婚,但她跟未婚夫的政客父亲William展开了一段热烈的地下情,Anna努力维持着这两段关系。另一边的William则陷入了难以释怀的漩涡,而他的妻子Ingrid对此一无所知。但在有人受伤之前,这个秘密又能隐瞒多久?

##### MediaInfo ######
General
Unique ID : 105488851795291971127007937014822236988 (0x4F5C69F1E3292A73C06ACCE4F38A733C)
Complete name : Obsession.S01E01.Episode.1.1080p.NF.WEB-DL.DDP.5.1.Atmos.H.264-BlackTV.mkv
Format : Matroska
Format version : Version 4
File size : 1.77 GiB
Duration : 33 min 26 s
Overall bit rate mode : Variable
Overall bit rate : 7 568 kb/s
Encoded date : UTC 2023-04-25 04:35:44
Writing application : mkvmerge v71.1.0 ('Fortitude') 64-bit
Writing library : libebml v1.4.4 + libmatroska v1.7.1
Muxer : CHDBits WEB Group

Video
ID : 1
Format : AVC
Format/Info : Advanced Video Codec
Format profile : High@L4
Format settings : CABAC / 4 Ref Frames
Format settings, CABAC : Yes
Format settings, Reference frames : 4 frames
Codec ID : V_MPEG4/ISO/AVC
Duration : 33 min 26 s
Bit rate mode : Variable
Bit rate : 6 799 kb/s
Maximum bit rate : 20.0 Mb/s
Width : 1 920 pixels
Height : 1 080 pixels
Display aspect ratio : 16:9
Frame rate mode : Constant
Frame rate : 25.000 FPS
Color space : YUV
Chroma subsampling : 4:2:0
Bit depth : 8 bits
Scan type : Progressive
Bits/(Pixel*Frame) : 0.131
Stream size : 1.59 GiB (90%)
Writing library : x264 core 148 r2727 7d026e8
Encoding settings : cabac=1 / ref=4 / deblock=1:0:0 / analyse=0x3:0x111 / me=umh / subme=10 / psy=1 / psy_rd=1.00:0.00 / mixed_ref=1 / me_range=120 / chroma_me=1 / trellis=2 / 8x8dct=1 / cqm=0 / deadzone=21,11 / fast_pskip=1 / chroma_qp_offset=-2 / threads=8 / lookahead_threads=2 / sliced_threads=0 / nr=0 / decimate=1 / interlaced=0 / bluray_compat=0 / stitchable=1 / constrained_intra=0 / bframes=16 / b_pyramid=2 / b_adapt=2 / b_bias=0 / direct=3 / weightb=1 / open_gop=0 / weightp=2 / keyint=250 / keyint_min=126 / scenecut=0 / intra_refresh=0 / rc_lookahead=250 / rc=crf / mbtree=1 / crf=16.0 / qcomp=0.50 / qpmin=6 / qpmax=51 / qpstep=4 / vbv_maxrate=20000 / vbv_bufsize=25000 / crf_max=0.0 / nal_hrd=vbr / filler=0 / ip_ratio=1.40 / aq=1:0.80
Language : English
Default : Yes
Forced : No

Audio
ID : 2
Format : E-AC-3 JOC
Format/Info : Enhanced AC-3 with Joint Object Coding
Commercial name : Dolby Digital Plus with Dolby Atmos
Codec ID : A_EAC3
Duration : 33 min 26 s
Bit rate mode : Constant
Bit rate : 768 kb/s
Channel(s) : 6 channels
Channel layout : L R C LFE Ls Rs
Sampling rate : 48.0 kHz
Frame rate : 31.250 FPS (1536 SPF)
Compression mode : Lossy
Stream size : 184 MiB (10%)
Language : English
Service kind : Complete Main
Default : Yes
Forced : No
Complexity index : 16
Number of dynamic objects : 15
Bed channel count : 1 channel
Bed channel configuration : LFE

Text #1
ID : 3
Format : UTF-8
Codec ID : S_TEXT/UTF8
Codec ID/Info : UTF-8 Plain Text
Duration : 31 min 20 s
Bit rate : 53 b/s
Count of elements : 388
Stream size : 12.3 KiB (0%)
Title : SDH
Language : English
Default : No
Forced : No

Text #2
ID : 4
Format : UTF-8
Codec ID : S_TEXT/UTF8
Codec ID/Info : UTF-8 Plain Text
Duration : 31 min 12 s
Bit rate : 36 b/s
Count of elements : 243
Stream size : 8.43 KiB (0%)
Title : Simplified
Language : Chinese
Default : No
Forced : No

Text #3
ID : 5
Format : UTF-8
Codec ID : S_TEXT/UTF8
Codec ID/Info : UTF-8 Plain Text
Duration : 31 min 12 s
Bit rate : 34 b/s
Count of elements : 273
Stream size : 7.96 KiB (0%)
Title : Traditional
Language : Chinese
Default : No
Forced : No

Menu
00:30:48.000 : en:End Credits

点击图片可查看大图

软字幕无法在截图上展现,HDR版本/杜比视界版本截图会出现颜色异常,请使用支持的设备播放!

部分资源为软字幕,移动端推荐播放器:MxPlayer,nPlayer,infuse ,其他播放器请自行尝试。

部分资源为软字幕,电脑端推荐播放器:PotPlayer,完美解码,KMPLAYER,其他播放器请自行尝试。



1 个附件 售价 大小 下载 时间

Obsession.S01.1080p.NF.WEB-DL.DDP5.1.Atmos.H.264-BlackTV[BTBTT].torrent 0 金币 21.09K 686 次 12月前

#1楼
发帖时间:2023-06-22 21:28:27   |   回复数:0
游客组