BILL36
隐世仙人♂

[2022] [美国] [剧情] [WEB-4K] 安多 第一季[全12集][中文字幕].Andor.S01.2160p.HS.WEB-DL.DDP5.1.HDR.x265-Huawei 73.86GB

-->

完整标题:安多 第一季[全12集][中文字幕].Andor.S01.2160p.HS.WEB-DL.DDP5.1.HDR.x265-Huawei 73.86GB



◎标  题 安多 第一季
◎译  名 星球大战外传:侠盗一号角色前传剧 / 安道尔(台)
◎片  名 Andor Season 1
◎年  代 2022
◎产  地 美国
◎类  别 剧情 / 动作 / 科幻 / 惊悚 / 冒险
◎语  言 英语
◎IMDb评分 8.4/10 (134102人评价)
◎IMDb链接 https://www.imdb.com/title/tt9253284/
◎豆瓣评分 9.1/10 (16950人评价)
◎豆瓣链接 https://movie.douban.com/subject/30376895/
◎导  演 托比·海恩斯 Toby Haynes
      苏珊娜·怀特 Susanna White
      本·卡隆 Ben Caron
◎编  剧 托尼·吉尔罗伊 Tony Gilroy
      丹·吉尔罗伊 Dan Gilroy
      史蒂芬·希夫 Stephen Schiff
      鲍尔·威利蒙 Beau Willimon
      乔治·卢卡斯 George Lucas
◎演  员 迭戈·卢纳 Diego Luna
      斯特兰·斯卡斯加德 Stellan Skarsgård
      吉娜薇·欧瑞丽 Genevieve O'Reilly
      丹妮斯·高夫 Denise Gough
      凯尔·索列尔 Kyle Soller
      阿德里娅·阿霍纳 Adria Arjona
      费奥纳·肖 Fiona Shaw
      安迪·瑟金斯 Andy Serkis
      福里斯特·惠特克 Forest Whitaker
      乔普林·西伯顿 Joplin Sibtain
      费伊·马赛 Faye Marsay
      瓦拉达·塞图 Varada Sethu
      伊丽莎白·杜劳 Elizabeth Dulau
      阿拉斯塔尔·麦肯泽 Alastair Mackenzie
      安东·莱瑟 Anton Lesser
      本·迈尔斯 Ben Miles
      邓肯·鲍 Duncan Pow
      戴夫·查普曼 Dave Chapman
      詹姆斯·麦卡德尔 James McArdle
      亚历克斯·费恩斯 Alex Ferns
      加里·比德尔 Gary Beadle
      安东尼奥·维纳 Antonio Viña
      凯瑟琳·亨特 Kathryn Hunter
      勃朗特·卡迈克尔 Bronte Carmichael
      鲁珀特·范西塔特 Rupert Vansittart
      斯坦利·汤森德 Stanley Townsend
      艾邦·摩斯-巴克拉赫 Ebon Moss-Bachrach
      埃里克斯·劳瑟 Alex Lawther
      小格什温·尤斯塔什 Gershwyn Eustache Jnr
      雅各布·詹姆斯·贝西克 Jacob James Beswick
      理查德·迪兰 Richard Dillane
      萨勒·利米 Sule Rimi
      罗伯特·埃姆斯 Robert Emms
      比蒂·埃德尼 Beatie Edney
      乔舒亚·詹姆斯 Joshua James
      诺弗·迈克伊万 Noof McEwan
      亚力克斯·布莱克 Alex Blake
      克里斯托弗·法里班克 Christopher Fairbank
      约瑟夫·戴维斯 Josef Davies
      克雷蒙斯·施伊克 Clemens Schick
      布莱恩·博维尔 Brian Bovell
      艾丹·库克 Aidan Cook
      基兰·奥布莱恩 Kieran O'Brien
      汤姆·里德 Tom Reed
      拉萨克·库科伊 Rasaq Kukoyi
      维尔夫·斯科尔丁 Wilf Scolding
      李·罗斯 Lee Ross
      迈克尔·吉恩 Michael Jenn
      本·福克斯 Ben Fox
      本·贝利·史密斯 Ben Bailey Smith
      安东·桑德斯 Anton Saunders
      阿宾·格雷亚 Abhin Galeya
      露西·拉塞尔 Lucy Russell
      安迪·加什古德 Andy Gathergood
      罗莎琳德·霍尔斯特德 Rosalind Halstead
      穆罕纳德·拜尔 Muhannad Bhaier
      哈利·安东 Harry Anton
      迈克尔·奥丁·卡特赖特 Michael Odin Cartwright
      John Joseph John Joseph
      艾丽丝·奥尔尤因 Alice Orr-Ewing

◎简  介
    这部剧是《星球大战外传:侠盗一号》的角色前传剧,主角是反抗军同盟间谍Cassian Andor(剧中由Diego Luna继续饰演),讲述在反抗军形成期间他的冒险经历。

##### MediaInfo ######
General
Unique ID : 26863825168002836120322836278106436974 (0x1435C8D70922070EDD309855A884B56E)
Complete name : Andor.S01E01.2160p.HS.WEB-DL.DDP5.1.HDR.x265-Huawei.mkv
Format : Matroska
Format version : Version 4
File size : 5.25 GiB
Duration : 39 min 13 s
Overall bit rate : 19.2 Mb/s
Encoded date : UTC 2023-04-26 06:22:06
Writing application : mkvmerge v74.0.0 ('You Oughta Know') 64-bit
Writing library : libebml v1.4.4 + libmatroska v1.7.1

Video
ID : 1
Format : HEVC
Format/Info : High Efficiency Video Coding
Format profile : Main 10@L5@Main
Codec ID : V_MPEGH/ISO/HEVC
Duration : 39 min 13 s
Bit rate : 19.0 Mb/s
Width : 3 840 pixels
Height : 2 160 pixels
Display aspect ratio : 16:9
Frame rate mode : Constant
Frame rate : 24.000 FPS
Color space : YUV
Chroma subsampling : 4:2:0
Bit depth : 10 bits
Bits/(Pixel*Frame) : 0.095
Stream size : 5.20 GiB (99%)
Writing library : x265 3.5:[Linux][GCC 9.4.0][64 bit] 10bit
Encoding settings : cpuid=1111039 / frame-threads=1 / numa-pools=16 / wpp / no-pmode / no-pme / no-psnr / no-ssim / log-level=2 / input-csp=1 / input-res=3840x2160 / interlace=0 / total-frames=0 / level-idc=50 / high-tier=0 / uhd-bd=0 / ref=3 / no-allow-non-conformance / repeat-headers / annexb / no-aud / no-hrd / info / hash=0 / no-temporal-layers / no-open-gop / min-keyint=48 / keyint=48 / gop-lookahead=0 / bframes=2 / b-adapt=0 / b-pyramid / bframe-bias=0 / rc-lookahead=48 / lookahead-slices=8 / scenecut=0 / hist-scenecut=0 / radl=0 / no-splice / no-intra-refresh / ctu=32 / min-cu-size=8 / no-rect / no-amp / max-tu-size=16 / tu-inter-depth=2 / tu-intra-depth=2 / limit-tu=0 / rdoq-level=1 / dynamic-rd=0.00 / no-ssim-rd / signhide / no-tskip / nr-intra=0 / nr-inter=0 / no-constrained-intra / no-strong-intra-smoothing / max-merge=3 / limit-refs=1 / no-limit-modes / me=1 / subme=2 / merange=44 / temporal-mvp / no-frame-dup / no-hme / weightp / no-weightb / no-analyze-src-pics / deblock=0:0 / no-sao / no-sao-non-deblock / rd=4 / selective-sao=0 / early-skip / rskip / no-fast-intra / no-tskip-fast / no-cu-lossless / b-intra / no-splitrd-skip / rdpenalty=1 / psy-rd=1.60 / psy-rdoq=5.00 / no-rd-refine / no-lossless / cbqpoffs=0 / crqpoffs=0 / rc=abr / bitrate=21000 / qcomp=0.75 / qpstep=4 / stats-write=0 / stats-read=0 / vbv-maxrate=25000 / vbv-bufsize=25000 / vbv-init=0.9 / ipratio=1.40 / pbratio=1.30 / aq-mode=3 / aq-strength=1.00 / no-cutree / zone-count=0 / no-strict-cbr / qg-size=32 / no-rc-grain / qpmax=69 / qpmin=0 / no-const-vbv / sar=1 / overscan=0 / videoformat=5 / range=0 / colorprim=9 / transfer=16 / colormatrix=9 / chromaloc=0 / display-window=0 / cll=0,0 / min-luma=0 / max-luma=1023 / log2-max-poc-lsb=8 / vui-timing-info / vui-hrd-info / slices=1 / no-opt-qp-pps / no-opt-ref-list-length-pps / no-multi-pass-opt-rps / scenecut-bias=0.00 / hist-threshold=0.01 / no-opt-cu-delta-qp / no-aq-motion / no-hdr10 / hdr10-opt / no-dhdr10-opt / no-idr-recovery-sei / analysis-reuse-level=0 / analysis-save-reuse-level=0 / analysis-load-reuse-level=0 / scale-factor=0 / refine-intra=0 / refine-inter=0 / refine-mv=1 / refine-ctu-distortion=0 / no-limit-sao / ctu-info=0 / no-lowpass-dct / refine-analysis-type=0 / copy-pic=1 / max-ausize-factor=1.0 / no-dynamic-refine / no-single-sei / no-hevc-aq / no-svt / no-field / qp-adaptation-range=1.00 / no-scenecut-aware-qpconformance-window-offsets / right=0 / bottom=0
Default : Yes
Forced : No
Color range : Limited
Color primaries : BT.2020
Transfer characteristics : PQ
Matrix coefficients : BT.2020 non-constant

Audio
ID : 2
Format : E-AC-3
Format/Info : Enhanced AC-3
Commercial name : Dolby Digital Plus
Codec ID : A_EAC3
Duration : 39 min 13 s
Bit rate mode : Constant
Bit rate : 192 kb/s
Channel(s) : 6 channels
Channel layout : L R C LFE Ls Rs
Sampling rate : 48.0 kHz
Frame rate : 31.250 FPS (1536 SPF)
Compression mode : Lossy
Stream size : 53.9 MiB (1%)
Language : English
Service kind : Complete Main
Default : Yes
Forced : No

Text #1
ID : 3
Format : UTF-8
Codec ID : S_TEXT/UTF8
Codec ID/Info : UTF-8 Plain Text
Duration : 35 min 25 s
Bit rate : 62 b/s
Count of elements : 527
Stream size : 16.3 KiB (0%)
Language : English
Default : No
Forced : No

Text #2
ID : 4
Format : UTF-8
Codec ID : S_TEXT/UTF8
Codec ID/Info : UTF-8 Plain Text
Duration : 37 min 31 s
Bit rate : 48 b/s
Count of elements : 447
Stream size : 13.4 KiB (0%)
Language : Indonesian
Default : No
Forced : No

Text #3
ID : 5
Format : UTF-8
Codec ID : S_TEXT/UTF8
Codec ID/Info : UTF-8 Plain Text
Duration : 37 min 31 s
Bit rate : 49 b/s
Count of elements : 447
Stream size : 13.6 KiB (0%)
Language : Malay
Default : No
Forced : No

Text #4
ID : 6
Format : UTF-8
Codec ID : S_TEXT/UTF8
Codec ID/Info : UTF-8 Plain Text
Duration : 38 min 44 s
Bit rate : 116 b/s
Count of elements : 449
Stream size : 33.1 KiB (0%)
Language : Thai
Default : No
Forced : No

Text #5
ID : 7
Format : UTF-8
Codec ID : S_TEXT/UTF8
Codec ID/Info : UTF-8 Plain Text
Duration : 38 min 44 s
Bit rate : 41 b/s
Count of elements : 450
Stream size : 11.8 KiB (0%)
Language : Chinese
Default : No
Forced : No

点击图片可查看大图

软字幕无法在截图上展现,HDR版本/杜比视界版本截图会出现颜色异常,请使用支持的设备播放!

部分资源为软字幕,移动端推荐播放器:MxPlayer,nPlayer,infuse ,其他播放器请自行尝试。

部分资源为软字幕,电脑端推荐播放器:PotPlayer,完美解码,KMPLAYER,其他播放器请自行尝试。



1 个附件 售价 大小 下载 时间

Andor.S01.2160p.HS.WEB-DL.DDP5.1.HDR.x265-Huawei[BTBTT].torrent 0 金币 188.63K 2758 次 12月前

#1楼
发帖时间:2023-06-22 21:28:52   |   回复数:1
yufan_419
武林高手
感谢楼主~~
7月前 #2楼
游客组