BILL36
隐世仙人♂

[2019] [美国] [剧情] [WEB-1080P] 诈欺担保人 第三季[全10集][简繁英字幕].Sneaky.Pete.S03.1080p.AMZN.WEB-DL.DDP.5.1.H.264-BlackTV 2

-->

完整标题:诈欺担保人 第三季[全10集][简繁英字幕].Sneaky.Pete.S03.1080p.AMZN.WEB-DL.DDP.5.1.H.264-BlackTV 23.05GB



◎标  题 诈欺担保人 第三季
◎译  名 以黑制黑 / 冒牌货
◎片  名 Sneaky Pete Season 3
◎年  代 2019
◎产  地 美国
◎类  别 剧情 / 犯罪
◎语  言 英语
◎IMDb评分 7.6/10 (567人评价)
◎IMDb链接 https://www.imdb.com/title/tt8772614/
◎豆瓣评分 7.5/10 (778人评价)
◎豆瓣链接 https://movie.douban.com/subject/30285831/
◎导  演 乔恩·阿维奈 Jon Avnet
      劳拉·伊内斯 Laura Innes
◎编  剧 布莱恩·科兰斯顿 Bryan Cranston
      大卫·肖 David Shore
◎演  员 吉奥瓦尼·瑞比西 Giovanni Ribisi
      肖恩·麦克雷 Shane McRae
      莉碧·巴勒尔 Libe Barer
      彼得·格雷蒂 Peter Gerety
      玛格·马丁戴尔 Margo Martindale
      马琳·爱尔兰 Marin Ireland
      贾丝廷·科佐纳斯 Justine Cotsonas
      杰伊·桑德斯 Jay O. Sanders
      雅各布·皮特斯 Jacob Pitts
      艾莉森·赖特 Alison Wright
      伊桑·恩布里 Ethan Embry
      杰特·劳伦斯 Jeté Laurence
      伊芙雷特·多 Efrat Dor
      凯文·查普曼 Kevin Chapman
      简·亚当斯 Jane Adams
      托拜厄斯·西格尔 Tobias Segal
      瑞奇·杰 Ricky Jay
      M·埃梅特·沃尔什 M. Emmet Walsh
      马尔科姆-贾马尔·华纳 Malcolm-Jamal Warner
      达伦·佩蒂 Darren Pettie
      帕特里克·J·亚当斯 Patrick J. Adams
      艾米·兰德克 Amy Landecker
      查德·林德伯格 Chad Lindberg
      马修·福斯特 Matthew Foster
      Algerita Wynn Lewis Algerita Wynn Lewis
      丹尼·皮尔斯 Denney Pierce
      哈利·海因斯 Harry Hains

◎简  介
    Amazon宣布续订《#诈欺担保人# Sneaky Pete》第三季,并会在下周于洛杉矶开机拍摄。

##### MediaInfo ######
General
Unique ID : 285571756985252855003742666291805586884 (0xD6D71EAB88F9D0FC6517DF2A604685C4)
Complete name : Sneaky.Pete.S03E01.The.Double.Up.&.Back.1080p.AMZN.WEB-DL.DDP.5.1.H.264-BlackTV.mkv
Format : Matroska
Format version : Version 4
File size : 2.45 GiB
Duration : 49 min 26 s
Overall bit rate : 7 087 kb/s
Encoded date : UTC 2023-04-25 13:08:59
Writing application : mkvmerge v71.1.0 ('Fortitude') 64-bit
Writing library : libebml v1.4.4 + libmatroska v1.7.1
Muxer : CHDBits WEB Group

Video
ID : 1
Format : AVC
Format/Info : Advanced Video Codec
Format profile : High@L4
Format settings : CABAC / 4 Ref Frames
Format settings, CABAC : Yes
Format settings, Reference frames : 4 frames
Codec ID : V_MPEG4/ISO/AVC
Duration : 49 min 26 s
Bit rate mode : Constant
Bit rate : 6 440 kb/s
Nominal bit rate : 10 000 kb/s
Width : 1 920 pixels
Height : 1 080 pixels
Display aspect ratio : 16:9
Frame rate mode : Constant
Frame rate : 24.000 FPS
Color space : YUV
Chroma subsampling : 4:2:0
Bit depth : 8 bits
Scan type : Progressive
Bits/(Pixel*Frame) : 0.129
Stream size : 2.22 GiB (91%)
Language : English
Default : Yes
Forced : No
Color range : Limited
Color primaries : BT.709
Transfer characteristics : BT.709
Matrix coefficients : BT.709

Audio
ID : 2
Format : E-AC-3
Format/Info : Enhanced AC-3
Commercial name : Dolby Digital Plus
Codec ID : A_EAC3
Duration : 49 min 26 s
Bit rate mode : Constant
Bit rate : 640 kb/s
Channel(s) : 6 channels
Channel layout : L R C LFE Ls Rs
Sampling rate : 48.0 kHz
Frame rate : 31.250 FPS (1536 SPF)
Compression mode : Lossy
Stream size : 226 MiB (9%)
Language : English
Service kind : Complete Main
Default : Yes
Forced : No

Text #1
ID : 3
Format : UTF-8
Codec ID : S_TEXT/UTF8
Codec ID/Info : UTF-8 Plain Text
Duration : 48 min 26 s
Bit rate : 79 b/s
Count of elements : 897
Stream size : 28.3 KiB (0%)
Title : SDH
Language : English
Default : No
Forced : No

Text #2
ID : 4
Format : UTF-8
Codec ID : S_TEXT/UTF8
Codec ID/Info : UTF-8 Plain Text
Duration : 46 min 19 s
Bit rate : 61 b/s
Count of elements : 677
Stream size : 20.7 KiB (0%)
Title : Simplified
Language : Chinese
Default : No
Forced : No

Text #3
ID : 5
Format : UTF-8
Codec ID : S_TEXT/UTF8
Codec ID/Info : UTF-8 Plain Text
Duration : 46 min 19 s
Bit rate : 56 b/s
Count of elements : 677
Stream size : 19.3 KiB (0%)
Title : Traditional
Language : Chinese
Default : No
Forced : No

Text #4
ID : 6
Format : UTF-8
Codec ID : S_TEXT/UTF8
Codec ID/Info : UTF-8 Plain Text
Duration : 46 min 19 s
Bit rate : 113 b/s
Count of elements : 677
Stream size : 38.4 KiB (0%)
Title : Egypt
Language : Arabic
Default : No
Forced : No

Text #5
ID : 7
Format : UTF-8
Codec ID : S_TEXT/UTF8
Codec ID/Info : UTF-8 Plain Text
Duration : 48 min 29 s
Bit rate : 54 b/s
Count of elements : 676
Stream size : 19.5 KiB (0%)
Title : Czechia
Language : Czech
Default : No
Forced : No

Text #6
ID : 8
Format : UTF-8
Codec ID : S_TEXT/UTF8
Codec ID/Info : UTF-8 Plain Text
Duration : 46 min 19 s
Bit rate : 68 b/s
Count of elements : 674
Stream size : 23.2 KiB (0%)
Title : Denmark
Language : Danish
Default : No
Forced : No

Text #7
ID : 9
Format : UTF-8
Codec ID : S_TEXT/UTF8
Codec ID/Info : UTF-8 Plain Text
Duration : 46 min 21 s
Bit rate : 65 b/s
Count of elements : 548
Stream size : 22.1 KiB (0%)
Language : German
Default : No
Forced : No

Text #8
ID : 10
Format : UTF-8
Codec ID : S_TEXT/UTF8
Codec ID/Info : UTF-8 Plain Text
Duration : 48 min 29 s
Bit rate : 100 b/s
Count of elements : 679
Stream size : 35.8 KiB (0%)
Title : Greece
Language : Greek
Default : No
Forced : No

Text #9
ID : 11
Format : UTF-8
Codec ID : S_TEXT/UTF8
Codec ID/Info : UTF-8 Plain Text
Duration : 46 min 19 s
Bit rate : 66 b/s
Count of elements : 676
Stream size : 22.6 KiB (0%)
Title : Latin America
Language : Spanish
Default : No
Forced : No

Text #10
ID : 12
Format : UTF-8
Codec ID : S_TEXT/UTF8
Codec ID/Info : UTF-8 Plain Text
Duration : 46 min 19 s
Bit rate : 66 b/s
Count of elements : 675
Stream size : 22.4 KiB (0%)
Language : Spanish
Default : No
Forced : No

Text #11
ID : 13
Format : UTF-8
Codec ID : S_TEXT/UTF8
Codec ID/Info : UTF-8 Plain Text
Duration : 46 min 19 s
Bit rate : 58 b/s
Count of elements : 673
Stream size : 19.8 KiB (0%)
Language : Finnish
Default : No
Forced : No

Text #12
ID : 14
Format : UTF-8
Codec ID : S_TEXT/UTF8
Codec ID/Info : UTF-8 Plain Text
Duration : 48 min 29 s
Bit rate : 62 b/s
Count of elements : 675
Stream size : 22.1 KiB (0%)
Title : Philippines
Language : fil
Default : No
Forced : No

Text #13
ID : 15
Format : UTF-8
Codec ID : S_TEXT/UTF8
Codec ID/Info : UTF-8 Plain Text
Duration : 46 min 19 s
Bit rate : 65 b/s
Count of elements : 674
Stream size : 22.1 KiB (0%)
Language : French
Default : No
Forced : No

Text #14
ID : 16
Format : UTF-8
Codec ID : S_TEXT/UTF8
Codec ID/Info : UTF-8 Plain Text
Duration : 46 min 19 s
Bit rate : 97 b/s
Count of elements : 677
Stream size : 33.0 KiB (0%)
Title : Israel
Language : Hebrew
Default : No
Forced : No

Text #15
ID : 17
Format : UTF-8
Codec ID : S_TEXT/UTF8
Codec ID/Info : UTF-8 Plain Text
Duration : 46 min 19 s
Bit rate : 181 b/s
Count of elements : 677
Stream size : 61.6 KiB (0%)
Title : India
Language : Hindi
Default : No
Forced : No

Text #16
ID : 18
Format : UTF-8
Codec ID : S_TEXT/UTF8
Codec ID/Info : UTF-8 Plain Text
Duration : 46 min 19 s
Bit rate : 56 b/s
Count of elements : 675
Stream size : 19.1 KiB (0%)
Language : Hungarian
Default : No
Forced : No

Text #17
ID : 19
Format : UTF-8
Codec ID : S_TEXT/UTF8
Codec ID/Info : UTF-8 Plain Text
Duration : 46 min 19 s
Bit rate : 57 b/s
Count of elements : 676
Stream size : 19.4 KiB (0%)
Language : Indonesian
Default : No
Forced : No

Text #18
ID : 20
Format : UTF-8
Codec ID : S_TEXT/UTF8
Codec ID/Info : UTF-8 Plain Text
Duration : 46 min 19 s
Bit rate : 68 b/s
Count of elements : 675
Stream size : 23.2 KiB (0%)
Language : Italian
Default : No
Forced : No

Text #19
ID : 21
Format : UTF-8
Codec ID : S_TEXT/UTF8
Codec ID/Info : UTF-8 Plain Text
Duration : 46 min 19 s
Bit rate : 53 b/s
Count of elements : 683
Stream size : 18.1 KiB (0%)
Title : Japan
Language : Japanese
Default : No
Forced : No

Text #20
ID : 22
Format : UTF-8
Codec ID : S_TEXT/UTF8
Codec ID/Info : UTF-8 Plain Text
Duration : 46 min 19 s
Bit rate : 76 b/s
Count of elements : 677
Stream size : 26.0 KiB (0%)
Title : South Korea
Language : Korean
Default : No
Forced : No

Text #21
ID : 23
Format : UTF-8
Codec ID : S_TEXT/UTF8
Codec ID/Info : UTF-8 Plain Text
Duration : 48 min 29 s
Bit rate : 52 b/s
Count of elements : 676
Stream size : 18.6 KiB (0%)
Title : Malaysia
Language : Malay
Default : No
Forced : No

Text #22
ID : 24
Format : UTF-8
Codec ID : S_TEXT/UTF8
Codec ID/Info : UTF-8 Plain Text
Duration : 46 min 19 s
Bit rate : 61 b/s
Count of elements : 675
Stream size : 20.9 KiB (0%)
Title : Norway
Language : Norwegian Bokmal
Default : No
Forced : No

Text #23
ID : 25
Format : UTF-8
Codec ID : S_TEXT/UTF8
Codec ID/Info : UTF-8 Plain Text
Duration : 46 min 19 s
Bit rate : 63 b/s
Count of elements : 674
Stream size : 21.4 KiB (0%)
Language : Dutch
Default : No
Forced : No

Text #24
ID : 26
Format : UTF-8
Codec ID : S_TEXT/UTF8
Codec ID/Info : UTF-8 Plain Text
Duration : 46 min 19 s
Bit rate : 57 b/s
Count of elements : 668
Stream size : 19.6 KiB (0%)
Language : Polish
Default : No
Forced : No

Text #25
ID : 27
Format : UTF-8
Codec ID : S_TEXT/UTF8
Codec ID/Info : UTF-8 Plain Text
Duration : 46 min 19 s
Bit rate : 63 b/s
Count of elements : 675
Stream size : 21.6 KiB (0%)
Title : Brazil
Language : Portuguese
Default : No
Forced : No

Text #26
ID : 28
Format : UTF-8
Codec ID : S_TEXT/UTF8
Codec ID/Info : UTF-8 Plain Text
Duration : 48 min 29 s
Bit rate : 56 b/s
Count of elements : 677
Stream size : 19.9 KiB (0%)
Language : Portuguese
Default : No
Forced : No

Text #27
ID : 29
Format : UTF-8
Codec ID : S_TEXT/UTF8
Codec ID/Info : UTF-8 Plain Text
Duration : 46 min 19 s
Bit rate : 57 b/s
Count of elements : 675
Stream size : 19.5 KiB (0%)
Language : Romanian
Default : No
Forced : No

Text #28
ID : 30
Format : UTF-8
Codec ID : S_TEXT/UTF8
Codec ID/Info : UTF-8 Plain Text
Duration : 46 min 19 s
Bit rate : 105 b/s
Count of elements : 677
Stream size : 35.7 KiB (0%)
Language : Russian
Default : No
Forced : No

Text #29
ID : 31
Format : UTF-8
Codec ID : S_TEXT/UTF8
Codec ID/Info : UTF-8 Plain Text
Duration : 46 min 19 s
Bit rate : 68 b/s
Count of elements : 672
Stream size : 23.3 KiB (0%)
Title : Sweden
Language : Swedish
Default : No
Forced : No

Text #30
ID : 32
Format : UTF-8
Codec ID : S_TEXT/UTF8
Codec ID/Info : UTF-8 Plain Text
Duration : 46 min 19 s
Bit rate : 199 b/s
Count of elements : 677
Stream size : 67.6 KiB (0%)
Title : India
Language : Tamil
Default : No
Forced : No

Text #31
ID : 33
Format : UTF-8
Codec ID : S_TEXT/UTF8
Codec ID/Info : UTF-8 Plain Text
Duration : 46 min 19 s
Bit rate : 181 b/s
Count of elements : 676
Stream size : 61.5 KiB (0%)
Title : India
Language : Telugu
Default : No
Forced : No

Text #32
ID : 34
Format : UTF-8
Codec ID : S_TEXT/UTF8
Codec ID/Info : UTF-8 Plain Text
Duration : 46 min 19 s
Bit rate : 158 b/s
Count of elements : 677
Stream size : 53.8 KiB (0%)
Language : Thai
Default : No
Forced : No

Text #33
ID : 35
Format : UTF-8
Codec ID : S_TEXT/UTF8
Codec ID/Info : UTF-8 Plain Text
Duration : 46 min 19 s
Bit rate : 61 b/s
Count of elements : 676
Stream size : 20.8 KiB (0%)
Language : Turkish
Default : No
Forced : No

Menu
00:00:00.000 : en:Amazon Original
00:00:05.000 : en:Previously on
00:03:07.000 : en:Opening Credits
00:03:42.000 : en:Julia confronts Marius
00:09:26.000 : en:Everyone wants to be a happy family
00:14:10.000 : en:Marius has a flashback
00:14:54.000 : en:Nobody's perfect
00:17:00.000 : en:A symbolic gesture
00:18:30.000 : en:Trying to get Julia out of jail
00:21:07.000 : en:Everybody has their own version of the truth
00:24:49.000 : en:Emotional heroin
00:27:09.000 : en:Scamming a scammer
00:30:39.000 : en:Marius is looking for new action
00:34:48.000 : en:Who does Marius want to be
00:43:36.000 : en:Julia confronts Audrey
00:46:01.000 : en:Back in the game
00:46:44.000 : en:End Credits

点击图片可查看大图

软字幕无法在截图上展现,HDR版本/杜比视界版本截图会出现颜色异常,请使用支持的设备播放!

部分资源为软字幕,移动端推荐播放器:MxPlayer,nPlayer,infuse ,其他播放器请自行尝试。

部分资源为软字幕,电脑端推荐播放器:PotPlayer,完美解码,KMPLAYER,其他播放器请自行尝试。



1 个附件 售价 大小 下载 时间

Sneaky.Pete.S03.1080p.AMZN.WEB-DL.DDP.5.1.H.264-BlackTV[BTBTT].torrent 0 金币 61.60K 434 次 12月前

#1楼
发帖时间:2023-06-22 21:28:58   |   回复数:0
游客组