BILL36
隐世仙人♂

[2018] [美国] [剧情] [WEB-1080P] 诈欺担保人 第二季[全10集][简繁英字幕].Sneaky.Pete.S02.1080p.AMZN.WEB-DL.DDP.5.1.H.264-BlackTV 4

-->

完整标题:诈欺担保人 第二季[全10集][简繁英字幕].Sneaky.Pete.S02.1080p.AMZN.WEB-DL.DDP.5.1.H.264-BlackTV 40.04GB



◎标  题 诈欺担保人 第二季
◎译  名 以黑制黑 / 冒牌货
◎片  名 Sneaky Pete Season 2
◎年  代 2018
◎产  地 美国
◎类  别 剧情 / 犯罪
◎语  言 英语
◎IMDb评分 8.2/10 (681人评价)
◎IMDb链接 https://www.imdb.com/title/tt6500216/
◎豆瓣评分 8.4/10 (1626人评价)
◎豆瓣链接 https://movie.douban.com/subject/27079601/
◎导  演 亚当·阿金 Adam Arkin
      吉奥瓦尼·瑞比西 Giovanni Ribisi
      艾米·坎安·曼 Ami Canaan Mann
      切瑞·诺兰 Cherie Nowlan
      乔恩·阿维奈 Jon Avnet
      劳拉·伊内斯 Laura Innes
      海伦·谢费 Helen Shaver
      亚当·伯恩斯坦 Adam Bernstein
      丹尼斯·蒂诺威 Denise Di Novi
      迈克尔·丁纳 Michael Dinner
◎编  剧 大卫·肖 David Shore
      布莱恩·科兰斯顿 Bryan Cranston
      格雷厄姆·约斯特 Graham Yost
◎演  员 吉奥瓦尼·瑞比西 Giovanni Ribisi
      马琳·爱尔兰 Marin Ireland
      肖恩·麦克雷 Shane McRae
      莉碧·巴勒尔 Libe Barer
      彼得·格雷蒂 Peter Gerety
      玛格·马丁戴尔 Margo Martindale
      艾莉森·赖特 Alison Wright
      伊桑·恩布里 Ethan Embry
      杰伊·桑德斯 Jay O. Sanders
      约瑟夫·莱尔·泰勒 Joseph Lyle Taylor
      戴斯蒙德·哈灵顿 Desmond Harrington
      贾丝廷·科佐纳斯 Justine Cotsonas
      查斯科·斯宾塞 Chaske Spencer
      凯文·查普曼 Kevin Chapman
      尼尔森·李 Nelson Lee
      詹妮弗·费林 Jennifer Ferrin
      弗吉尼亚·库尔 Virginia Kull
      巴布斯·奥卢桑莫昆 Babs Olusanmokun
      Joseph DeVito Joseph DeVito

◎简  介
    Amazon剧《#诈欺担保人# Sneaky Pete》第二季定于美国时间3月9日上线,第二季剧情讲述Pete(Giovanni Ribisi饰)被兄弟档犯罪调查侦探Frank Hooper和Joe Hooper找上,Frank和Joe所知道的是,Pete的母亲Maggie(Jane Adams饰)从他们客户手中偷去1100万美金,但他们不知道的是,这个Pete并非真货,而是由主角Marius冒名假扮。   因此主角只好再次面对危险,努力完成找到正牌Pete的母亲﹑保护家人﹑让自己真正身份不败露﹑摆脱暴徒及捞上一笔的多重目标。

##### MediaInfo ######
General
Unique ID : 26188037249099763293951309677363939140 (0x13B3A1EC5317D91684D7246FC5FF4744)
Complete name : Sneaky.Pete.S02E01.The.Sinister.Hotel.Room.Mystery.1080p.AMZN.WEB-DL.DDP.5.1.H.264-BlackTV.mkv
Format : Matroska
Format version : Version 4
File size : 4.83 GiB
Duration : 54 min 38 s
Overall bit rate : 12.7 Mb/s
Encoded date : UTC 2023-04-25 12:46:18
Writing application : mkvmerge v71.1.0 ('Fortitude') 64-bit
Writing library : libebml v1.4.4 + libmatroska v1.7.1
Muxer : CHDBits WEB Group

Video
ID : 1
Format : AVC
Format/Info : Advanced Video Codec
Format profile : High@L4
Format settings : CABAC / 4 Ref Frames
Format settings, CABAC : Yes
Format settings, Reference frames : 4 frames
Codec ID : V_MPEG4/ISO/AVC
Duration : 54 min 38 s
Bit rate : 12.0 Mb/s
Width : 1 920 pixels
Height : 1 080 pixels
Display aspect ratio : 16:9
Frame rate mode : Constant
Frame rate : 24.000 FPS
Color space : YUV
Chroma subsampling : 4:2:0
Bit depth : 8 bits
Scan type : Progressive
Bits/(Pixel*Frame) : 0.241
Stream size : 4.58 GiB (95%)
Language : English
Default : Yes
Forced : No
Color range : Limited
Color primaries : BT.709
Transfer characteristics : BT.709
Matrix coefficients : BT.709

Audio
ID : 2
Format : E-AC-3
Format/Info : Enhanced AC-3
Commercial name : Dolby Digital Plus
Codec ID : A_EAC3
Duration : 54 min 38 s
Bit rate mode : Constant
Bit rate : 640 kb/s
Channel(s) : 6 channels
Channel layout : L R C LFE Ls Rs
Sampling rate : 48.0 kHz
Frame rate : 31.250 FPS (1536 SPF)
Compression mode : Lossy
Stream size : 250 MiB (5%)
Language : English
Service kind : Complete Main
Default : Yes
Forced : No

Text #1
ID : 3
Format : UTF-8
Codec ID : S_TEXT/UTF8
Codec ID/Info : UTF-8 Plain Text
Duration : 53 min 41 s
Bit rate : 86 b/s
Count of elements : 1202
Stream size : 34.1 KiB (0%)
Title : SDH
Language : English
Default : No
Forced : No

Text #2
ID : 4
Format : UTF-8
Codec ID : S_TEXT/UTF8
Codec ID/Info : UTF-8 Plain Text
Duration : 52 min 22 s
Bit rate : 69 b/s
Count of elements : 877
Stream size : 26.8 KiB (0%)
Title : Simplified
Language : Chinese
Default : No
Forced : No

Text #3
ID : 5
Format : UTF-8
Codec ID : S_TEXT/UTF8
Codec ID/Info : UTF-8 Plain Text
Duration : 52 min 22 s
Bit rate : 67 b/s
Count of elements : 877
Stream size : 26.0 KiB (0%)
Title : Traditional
Language : Chinese
Default : No
Forced : No

Text #4
ID : 6
Format : UTF-8
Codec ID : S_TEXT/UTF8
Codec ID/Info : UTF-8 Plain Text
Duration : 52 min 22 s
Bit rate : 99 b/s
Count of elements : 877
Stream size : 38.2 KiB (0%)
Title : Egypt
Language : Arabic
Default : No
Forced : No

Text #5
ID : 7
Format : UTF-8
Codec ID : S_TEXT/UTF8
Codec ID/Info : UTF-8 Plain Text
Duration : 53 min 41 s
Bit rate : 59 b/s
Count of elements : 877
Stream size : 23.4 KiB (0%)
Title : Czechia
Language : Czech
Default : No
Forced : No

Text #6
ID : 8
Format : UTF-8
Codec ID : S_TEXT/UTF8
Codec ID/Info : UTF-8 Plain Text
Duration : 52 min 22 s
Bit rate : 66 b/s
Count of elements : 874
Stream size : 25.5 KiB (0%)
Title : Denmark
Language : Danish
Default : No
Forced : No

Text #7
ID : 9
Format : UTF-8
Codec ID : S_TEXT/UTF8
Codec ID/Info : UTF-8 Plain Text
Duration : 52 min 23 s
Bit rate : 63 b/s
Count of elements : 628
Stream size : 24.3 KiB (0%)
Language : German
Default : No
Forced : No

Text #8
ID : 10
Format : UTF-8
Codec ID : S_TEXT/UTF8
Codec ID/Info : UTF-8 Plain Text
Duration : 53 min 41 s
Bit rate : 119 b/s
Count of elements : 878
Stream size : 47.0 KiB (0%)
Title : Greece
Language : Greek
Default : No
Forced : No

Text #9
ID : 11
Format : UTF-8
Codec ID : S_TEXT/UTF8
Codec ID/Info : UTF-8 Plain Text
Duration : 52 min 22 s
Bit rate : 74 b/s
Count of elements : 868
Stream size : 28.4 KiB (0%)
Title : Latin America
Language : Spanish
Default : No
Forced : No

Text #10
ID : 12
Format : UTF-8
Codec ID : S_TEXT/UTF8
Codec ID/Info : UTF-8 Plain Text
Duration : 52 min 22 s
Bit rate : 75 b/s
Count of elements : 874
Stream size : 28.9 KiB (0%)
Language : Spanish
Default : No
Forced : No

Text #11
ID : 13
Format : UTF-8
Codec ID : S_TEXT/UTF8
Codec ID/Info : UTF-8 Plain Text
Duration : 52 min 22 s
Bit rate : 63 b/s
Count of elements : 866
Stream size : 24.2 KiB (0%)
Language : Finnish
Default : No
Forced : No

Text #12
ID : 14
Format : UTF-8
Codec ID : S_TEXT/UTF8
Codec ID/Info : UTF-8 Plain Text
Duration : 53 min 41 s
Bit rate : 66 b/s
Count of elements : 867
Stream size : 26.3 KiB (0%)
Title : Philippines
Language : fil
Default : No
Forced : No

Text #13
ID : 15
Format : UTF-8
Codec ID : S_TEXT/UTF8
Codec ID/Info : UTF-8 Plain Text
Duration : 52 min 22 s
Bit rate : 68 b/s
Count of elements : 869
Stream size : 26.2 KiB (0%)
Language : French
Default : No
Forced : No

Text #14
ID : 16
Format : UTF-8
Codec ID : S_TEXT/UTF8
Codec ID/Info : UTF-8 Plain Text
Duration : 52 min 22 s
Bit rate : 102 b/s
Count of elements : 864
Stream size : 39.2 KiB (0%)
Title : Israel
Language : Hebrew
Default : No
Forced : No

Text #15
ID : 17
Format : UTF-8
Codec ID : S_TEXT/UTF8
Codec ID/Info : UTF-8 Plain Text
Duration : 52 min 22 s
Bit rate : 180 b/s
Count of elements : 877
Stream size : 69.2 KiB (0%)
Title : India
Language : Hindi
Default : No
Forced : No

Text #16
ID : 18
Format : UTF-8
Codec ID : S_TEXT/UTF8
Codec ID/Info : UTF-8 Plain Text
Duration : 52 min 22 s
Bit rate : 61 b/s
Count of elements : 874
Stream size : 23.7 KiB (0%)
Language : Hungarian
Default : No
Forced : No

Text #17
ID : 19
Format : UTF-8
Codec ID : S_TEXT/UTF8
Codec ID/Info : UTF-8 Plain Text
Duration : 52 min 22 s
Bit rate : 66 b/s
Count of elements : 873
Stream size : 25.4 KiB (0%)
Language : Indonesian
Default : No
Forced : No

Text #18
ID : 20
Format : UTF-8
Codec ID : S_TEXT/UTF8
Codec ID/Info : UTF-8 Plain Text
Duration : 52 min 22 s
Bit rate : 70 b/s
Count of elements : 873
Stream size : 27.1 KiB (0%)
Language : Italian
Default : No
Forced : No

Text #19
ID : 21
Format : UTF-8
Codec ID : S_TEXT/UTF8
Codec ID/Info : UTF-8 Plain Text
Duration : 52 min 22 s
Bit rate : 52 b/s
Count of elements : 773
Stream size : 20.2 KiB (0%)
Title : Japan
Language : Japanese
Default : No
Forced : No

Text #20
ID : 22
Format : UTF-8
Codec ID : S_TEXT/UTF8
Codec ID/Info : UTF-8 Plain Text
Duration : 52 min 22 s
Bit rate : 79 b/s
Count of elements : 877
Stream size : 30.6 KiB (0%)
Title : South Korea
Language : Korean
Default : No
Forced : No

Text #21
ID : 23
Format : UTF-8
Codec ID : S_TEXT/UTF8
Codec ID/Info : UTF-8 Plain Text
Duration : 53 min 41 s
Bit rate : 56 b/s
Count of elements : 871
Stream size : 22.2 KiB (0%)
Title : Malaysia
Language : Malay
Default : No
Forced : No

Text #22
ID : 24
Format : UTF-8
Codec ID : S_TEXT/UTF8
Codec ID/Info : UTF-8 Plain Text
Duration : 52 min 22 s
Bit rate : 70 b/s
Count of elements : 874
Stream size : 26.9 KiB (0%)
Title : Norway
Language : Norwegian Bokmal
Default : No
Forced : No

Text #23
ID : 25
Format : UTF-8
Codec ID : S_TEXT/UTF8
Codec ID/Info : UTF-8 Plain Text
Duration : 52 min 22 s
Bit rate : 65 b/s
Count of elements : 857
Stream size : 25.3 KiB (0%)
Language : Dutch
Default : No
Forced : No

Text #24
ID : 26
Format : UTF-8
Codec ID : S_TEXT/UTF8
Codec ID/Info : UTF-8 Plain Text
Duration : 52 min 22 s
Bit rate : 62 b/s
Count of elements : 859
Stream size : 24.1 KiB (0%)
Language : Polish
Default : No
Forced : No

Text #25
ID : 27
Format : UTF-8
Codec ID : S_TEXT/UTF8
Codec ID/Info : UTF-8 Plain Text
Duration : 52 min 22 s
Bit rate : 72 b/s
Count of elements : 866
Stream size : 27.7 KiB (0%)
Title : Brazil
Language : Portuguese
Default : No
Forced : No

Text #26
ID : 28
Format : UTF-8
Codec ID : S_TEXT/UTF8
Codec ID/Info : UTF-8 Plain Text
Duration : 53 min 41 s
Bit rate : 60 b/s
Count of elements : 875
Stream size : 23.7 KiB (0%)
Language : Portuguese
Default : No
Forced : No

Text #27
ID : 29
Format : UTF-8
Codec ID : S_TEXT/UTF8
Codec ID/Info : UTF-8 Plain Text
Duration : 53 min 41 s
Bit rate : 67 b/s
Count of elements : 876
Stream size : 26.7 KiB (0%)
Language : Romanian
Default : No
Forced : No

Text #28
ID : 30
Format : UTF-8
Codec ID : S_TEXT/UTF8
Codec ID/Info : UTF-8 Plain Text
Duration : 52 min 22 s
Bit rate : 124 b/s
Count of elements : 877
Stream size : 47.6 KiB (0%)
Language : Russian
Default : No
Forced : No

Text #29
ID : 31
Format : UTF-8
Codec ID : S_TEXT/UTF8
Codec ID/Info : UTF-8 Plain Text
Duration : 52 min 22 s
Bit rate : 69 b/s
Count of elements : 871
Stream size : 26.8 KiB (0%)
Title : Sweden
Language : Swedish
Default : No
Forced : No

Text #30
ID : 32
Format : UTF-8
Codec ID : S_TEXT/UTF8
Codec ID/Info : UTF-8 Plain Text
Duration : 52 min 22 s
Bit rate : 212 b/s
Count of elements : 878
Stream size : 81.4 KiB (0%)
Title : India
Language : Tamil
Default : No
Forced : No

Text #31
ID : 33
Format : UTF-8
Codec ID : S_TEXT/UTF8
Codec ID/Info : UTF-8 Plain Text
Duration : 52 min 22 s
Bit rate : 209 b/s
Count of elements : 910
Stream size : 80.2 KiB (0%)
Title : India
Language : Telugu
Default : No
Forced : No

Text #32
ID : 34
Format : UTF-8
Codec ID : S_TEXT/UTF8
Codec ID/Info : UTF-8 Plain Text
Duration : 52 min 22 s
Bit rate : 179 b/s
Count of elements : 877
Stream size : 68.9 KiB (0%)
Language : Thai
Default : No
Forced : No

Text #33
ID : 35
Format : UTF-8
Codec ID : S_TEXT/UTF8
Codec ID/Info : UTF-8 Plain Text
Duration : 52 min 22 s
Bit rate : 68 b/s
Count of elements : 875
Stream size : 26.4 KiB (0%)
Language : Turkish
Default : No
Forced : No

点击图片可查看大图

软字幕无法在截图上展现,HDR版本/杜比视界版本截图会出现颜色异常,请使用支持的设备播放!

部分资源为软字幕,移动端推荐播放器:MxPlayer,nPlayer,infuse ,其他播放器请自行尝试。

部分资源为软字幕,电脑端推荐播放器:PotPlayer,完美解码,KMPLAYER,其他播放器请自行尝试。



1 个附件 售价 大小 下载 时间

Sneaky.Pete.S02.1080p.AMZN.WEB-DL.DDP.5.1.H.264-BlackTV[BTBTT].torrent 0 金币 104.04K 336 次 12月前

#1楼
发帖时间:2023-06-22 21:29:04   |   回复数:0
游客组