BILL36
超凡入圣№

[2023] [日本] [动画] [WEB-1080P] 爱犬指令[第15集][中文字幕].DOG.SIGNAL.S01.2023.1080p.Baha.WEB-DL.x264.AAC-ZeroTV 0.59GB

-->

完整标题:爱犬指令[第15集][中文字幕].DOG.SIGNAL.S01.2023.1080p.Baha.WEB-DL.x264.AAC-ZeroTV 0.59GB



◎标  题 爱犬指令
◎译  名 Dog Signal
◎片  名 ドッグシグナル
◎年  代 2023
◎产  地 日本
◎类  别 动画
◎语  言 日语
◎IMDb链接 https://www.imdb.com/title//
◎豆瓣链接 https://movie.douban.com/subject/36613590/
◎导  演 古桥一浩 Kazuhiro Furuhashi
◎编  剧 古桥一浩 Kazuhiro Furuhashi
◎演  员 小野贤章 Kensho Ono
      铃村健一 Kenichi Suzumura
      甲斐田裕子 Yûko Kaida
      大桥贤一郎 KENN
      松田健一郎 Kenichirou Matsuda
      伊濑茉莉也 Mariya Ise

◎简  介
    训犬师,那是连接狗狗和人类纽带的工作。优柔寡断的青年佐村未祐在和被前女友强塞的狗狗散步时遇见了专业训犬师·羽丹真一郎,偶然的相遇使未祐的人生发生了翻天覆地的变化!

部分资源为软字幕,移动端推荐播放器:MxPlayer,nPlayer,infuse ,其他播放器请自行尝试。

部分资源为软字幕,电脑端推荐播放器:PotPlayer,完美解码,KMPLAYER,其他播放器请自行尝试。

##### MediaInfo ######
General
Complete name : DOG.SIGNAL.S01E15.2023.1080p.Baha.WEB-DL.x264.AAC-ZeroTV.mp4
Duration : 25 min 3 s
Overall bit rate : 3 356 kb/s

Video
ID : 1
Format : AVC
Format/Info : Advanced Video Codec
Format profile : High@L5
Format settings : CABAC / 4 Ref Frames
Format settings, CABAC : Yes
Format settings, Reference frames : 4 frames
Codec ID : avc1
Codec ID/Info : Advanced Video Coding
Duration : 25 min 3 s
Source duration : 25 min 3 s
Bit rate : 3 066 kb/s
Width : 1 920 pixels
Height : 1 080 pixels
Display aspect ratio : 16:9
Frame rate mode : Variable
Frame rate : 23.976 (24000/1001) FPS
Minimum frame rate : 23.974 FPS
Maximum frame rate : 23.981 FPS
Color space : YUV
Chroma subsampling : 4:2:0
Bit depth : 8 bits
Scan type : Progressive
Bits/(Pixel*Frame) : 0.062
Stream size : 549 MiB (91%)
Source stream size : 549 MiB (91%)
Writing library : x264 core 161 r3018 db0d417
Encoding settings : cabac=1 / ref=4 / deblock=1:-1:-1 / analyse=0x3:0x113 / me=umh / subme=9 / psy=1 / psy_rd=1.00:0.00 / mixed_ref=1 / me_range=16 / chroma_me=1 / trellis=2 / 8x8dct=1 / cqm=0 / deadzone=21,11 / fast_pskip=1 / chroma_qp_offset=-2 / threads=24 / lookahead_threads=2 / sliced_threads=0 / nr=0 / decimate=1 / interlaced=0 / bluray_compat=0 / constrained_intra=0 / bframes=8 / b_pyramid=2 / b_adapt=1 / b_bias=0 / direct=3 / weightb=1 / open_gop=0 / weightp=2 / keyint=250 / keyint_min=23 / scenecut=40 / intra_refresh=0 / rc_lookahead=50 / rc=crf / mbtree=1 / crf=21.0 / qcomp=0.60 / qpmin=0 / qpmax=69 / qpstep=4 / vbv_maxrate=12000 / vbv_bufsize=80000 / crf_max=0.0 / nal_hrd=none / filler=0 / ip_ratio=1.40 / aq=3:1.00
mdhd_Duration : 1503043
Codec configuration box : avcC

Audio
ID : 2
Format : AAC LC
Format/Info : Advanced Audio Codec Low Complexity
Codec ID : mp4a-40-2
Duration : 25 min 3 s
Bit rate mode : Constant
Bit rate : 288 kb/s
Channel(s) : 2 channels
Channel layout : L R
Sampling rate : 48.0 kHz
Frame rate : 46.875 FPS (1024 SPF)
Compression mode : Lossy
Stream size : 50.9 MiB (8%)
Language : Japanese
Default : Yes
Alternate group : 1


点击图片可查看大图

软字幕无法在截图上展现,HDR版本/杜比视界版本截图会出现颜色异常,请使用支持的设备播放!



1 个附件 售价 大小 下载 时间

DOG.SIGNAL.S01.2023.1080p.Baha.WEB-DL.x264.AAC-ZeroTV[1LOU.ME].torrent 0 金币 4.18K 98 次 19天前

#1楼
发帖时间:2024-02-12 21:24:05   |   回复数:0
游客组