BILL36
超凡入圣№

[2023] [日本] [动画] [WEB-1080P] 爱犬指令[第15集][中文字幕].DOG.SIGNAL.S01.2023.1080p.KKTV.WEB-DL.x264.AAC-ZeroTV 0.64GB

-->

完整标题:爱犬指令[第15集][中文字幕].DOG.SIGNAL.S01.2023.1080p.KKTV.WEB-DL.x264.AAC-ZeroTV 0.64GB



◎标  题 爱犬指令
◎译  名 Dog Signal
◎片  名 ドッグシグナル
◎年  代 2023
◎产  地 日本
◎类  别 动画
◎语  言 日语
◎IMDb链接 https://www.imdb.com/title//
◎豆瓣链接 https://movie.douban.com/subject/36613590/
◎导  演 古桥一浩 Kazuhiro Furuhashi
◎编  剧 古桥一浩 Kazuhiro Furuhashi
◎演  员 小野贤章 Kensho Ono
      铃村健一 Kenichi Suzumura
      甲斐田裕子 Yûko Kaida
      大桥贤一郎 KENN
      松田健一郎 Kenichirou Matsuda
      伊濑茉莉也 Mariya Ise

◎简  介
    训犬师,那是连接狗狗和人类纽带的工作。优柔寡断的青年佐村未祐在和被前女友强塞的狗狗散步时遇见了专业训犬师·羽丹真一郎,偶然的相遇使未祐的人生发生了翻天覆地的变化!

部分资源为软字幕,移动端推荐播放器:MxPlayer,nPlayer,infuse ,其他播放器请自行尝试。

部分资源为软字幕,电脑端推荐播放器:PotPlayer,完美解码,KMPLAYER,其他播放器请自行尝试。

##### MediaInfo ######
General
Unique ID : 282909540548521463120508529314648601231 (0xD4D665440B559ADF28DA7C0A08C0B28F)
Complete name : DOG.SIGNAL.S01E15.2023.1080p.KKTV.WEB-DL.x264.AAC-ZeroTV.mkv
Duration : 25 min 3 s
Overall bit rate : 3 678 kb/s

Video
ID : 1
Format : AVC
Format/Info : Advanced Video Codec
Format profile : [email protected]
Format settings : CABAC / 5 Ref Frames
Format settings, CABAC : Yes
Format settings, Reference frames : 5 frames
Codec ID : V_MPEG4/ISO/AVC
Duration : 25 min 3 s
Bit rate : 3 370 kb/s
Width : 1 920 pixels
Height : 1 080 pixels
Display aspect ratio : 16:9
Frame rate mode : Constant
Frame rate : 23.976 (24000/1001) FPS
Color space : YUV
Chroma subsampling : 4:2:0
Bit depth : 8 bits
Scan type : Progressive
Bits/(Pixel*Frame) : 0.068
Stream size : 624 MiB (95%)
Writing library : x264 core 142
Encoding settings : cabac=1 / ref=5 / deblock=1:0:0 / analyse=0x3:0x113 / me=umh / subme=9 / psy=1 / psy_rd=1.00:0.00 / mixed_ref=1 / me_range=32 / chroma_me=1 / trellis=1 / 8x8dct=1 / cqm=0 / deadzone=21,11 / fast_pskip=1 / chroma_qp_offset=-2 / threads=12 / lookahead_threads=1 / sliced_threads=0 / nr=0 / decimate=1 / interlaced=0 / bluray_compat=0 / stitchable=1 / constrained_intra=0 / bframes=3 / b_pyramid=2 / b_adapt=1 / b_bias=0 / direct=3 / weightb=1 / open_gop=0 / weightp=2 / keyint=24 / keyint_min=2 / scenecut=0 / intra_refresh=0 / rc_lookahead=35 / rc=abr / mbtree=1 / bitrate=3370 / ratetol=1.0 / qcomp=0.60 / qpmin=0 / qpmax=69 / qpstep=4 / vbv_maxrate=5055 / vbv_bufsize=7582 / nal_hrd=none / filler=0 / ip_ratio=1.40 / aq=1:1.00
Language : English
Default : Yes
Forced : No

Audio
ID : 2
Format : AAC LC
Format/Info : Advanced Audio Codec Low Complexity
Codec ID : A_AAC-2
Duration : 25 min 3 s
Bit rate : 192 kb/s
Channel(s) : 2 channels
Channel layout : L R
Sampling rate : 44.1 kHz
Frame rate : 43.066 FPS (1024 SPF)
Compression mode : Lossy
Stream size : 34.4 MiB (5%)
Title : Japanese
Language : Japanese
Default : Yes
Forced : No

Text #1
ID : 3
Format : UTF-8
Codec ID : S_TEXT/UTF8
Codec ID/Info : UTF-8 Plain Text
Duration : 24 min 42 s
Bit rate : 40 b/s
Frame rate : 0.226 FPS
Count of elements : 335
Stream size : 7.40 KiB (0%)
Title : Chinese Simplified
Language : Chinese
Default : Yes
Forced : No

Text #2
ID : 4
Format : UTF-8
Codec ID : S_TEXT/UTF8
Codec ID/Info : UTF-8 Plain Text
Duration : 24 min 42 s
Bit rate : 40 b/s
Frame rate : 0.226 FPS
Count of elements : 335
Stream size : 7.40 KiB (0%)
Title : Chinese Traditional
Language : Chinese
Default : No
Forced : No


点击图片可查看大图

软字幕无法在截图上展现,HDR版本/杜比视界版本截图会出现颜色异常,请使用支持的设备播放!



1 个附件 售价 大小 下载 时间

DOG.SIGNAL.S01.2023.1080p.KKTV.WEB-DL.x264.AAC-ZeroTV[1LOU.ME].torrent 0 金币 4.32K 119 次 19天前

#1楼
发帖时间:2024-02-12 21:24:51   |   回复数:0
游客组