BILL36
超凡入圣№

[2024] [日本] [悬疑] [WEB-1080P] 占领新机场[第05集][无字片源].Captured.Airport.S01.1080p.HuluJP.WEB-DL.AAC.2.0.H.264-BlackTV

-->

完整标题:占领新机场[第05集][无字片源].Captured.Airport.S01.1080p.HuluJP.WEB-DL.AAC.2.0.H.264-BlackTV 1.99GB



◎标  题 占领新机场
◎片  名 新空港占拠
◎年  代 2024
◎产  地 日本
◎类  别 悬疑 / 惊悚 / 犯罪
◎语  言 日语
◎IMDb链接 https://www.imdb.com/title//
◎豆瓣链接 https://movie.douban.com/subject/36589905/
◎导  演 大谷太郎 Tarô Ohtani
      茂山佳则 Yoshinori Shigeyama
◎演  员 樱井翔 Shô Sakurai
      比嘉爱未 Manami Higa
      成膳任 Sonim
      白石圣 Sei Shiraishi
      杰西 Jesse
      片桐仁 Jin Katagiri
      滨津隆之 Takayuki Hamatsu
      长田成哉 Seiya Osada
      泷内公美 Kumi Takiuchi
      手塚通 Toru Tezuka
      黑泽明日香 Asuka Kurosawa
      奥贯薫 Kaoru Okunuki

◎简  介
    神奈川新机场被用面具遮住脸的武装团体“兽”占据。再次被卷入事件的武藏,向1年前的事件以来,休职中的管理官·和泉樱请求协助。情报分析官志摩和新的朋友也加入其中,从机场救出人质,“消灭”比前作的“鬼”更危险的“兽”。另一方面,在横浜湾医院握手术刀的武藏的妻子心脏内科医生裕子也被卷入了某 个事件。解救人质的期限只有一天。“兽”们的真面目、目的、还有武藏家的命运是什么呢?

部分资源为软字幕,移动端推荐播放器:MxPlayer,nPlayer,infuse ,其他播放器请自行尝试。

部分资源为软字幕,电脑端推荐播放器:PotPlayer,完美解码,KMPLAYER,其他播放器请自行尝试。

##### MediaInfo ######
General
Unique ID : 40685841638024478268251747272938068321 (0x1E9BCEDDD3F8911A35A5F7380C159961)
Complete name : Captured.Airport.S01E05.1080p.HuluJP.WEB-DL.AAC.2.0.H.264-BlackTV.mkv
Duration : 45 min 44 s
Overall bit rate : 6 233 kb/s

Video
ID : 1
Format : AVC
Format/Info : Advanced Video Codec
Format profile : High@L4
Format settings : CABAC / 4 Ref Frames
Format settings, CABAC : Yes
Format settings, Reference frames : 4 frames
Codec ID : V_MPEG4/ISO/AVC
Duration : 45 min 44 s
Bit rate : 5 977 kb/s
Width : 1 920 pixels
Height : 1 080 pixels
Display aspect ratio : 16:9
Frame rate mode : Constant
Frame rate : 29.970 (30000/1001) FPS
Color space : YUV
Chroma subsampling : 4:2:0
Bit depth : 8 bits
Scan type : Progressive
Bits/(Pixel*Frame) : 0.096
Stream size : 1.91 GiB (96%)
Language : Japanese
Default : Yes
Forced : No
Color range : Limited
Color primaries : BT.709
Transfer characteristics : BT.709
Matrix coefficients : BT.709

Audio
ID : 2
Format : AAC LC
Format/Info : Advanced Audio Codec Low Complexity
Codec ID : A_AAC-2
Duration : 45 min 44 s
Bit rate : 253 kb/s
Channel(s) : 2 channels
Channel layout : L R
Sampling rate : 48.0 kHz
Frame rate : 46.875 FPS (1024 SPF)
Compression mode : Lossy
Stream size : 82.9 MiB (4%)
Language : Japanese
Default : Yes
Forced : No


点击图片可查看大图

软字幕无法在截图上展现,HDR版本/杜比视界版本截图会出现颜色异常,请使用支持的设备播放!



1 个附件 售价 大小 下载 时间

Captured.Airport.S01.1080p.HuluJP.WEB-DL.AAC.2.0.H.264-BlackTV[1LOU.ME].torrent 0 金币 7.70K 168 次 19天前

#1楼
发帖时间:2024-02-13 09:56:35   |   回复数:0
游客组