BILL36
超凡入圣№

[2024] [美国] [剧情] [WEB-1080P] 宿敌 第二季[第03集][无字片源].Feud.S02.1080p.Hulu.WEB-DL.DDP.5.1.H.264-BlackTV 2.26GB

-->

完整标题:宿敌 第二季[第03集][无字片源].Feud.S02.1080p.Hulu.WEB-DL.DDP.5.1.H.264-BlackTV 2.26GB



◎标  题 宿敌 第二季
◎译  名 宿敌:卡波特与天鹅们 / 宿敌:卡波特VS天鹅女郎 / 宿敌:卡波特的女人 / Feud: Capote's Women / Feud Season 2
◎片  名 Feud: Capote vs. The Swans Season 2
◎年  代 2024
◎产  地 美国
◎类  别 剧情 / 犯罪
◎语  言 英语
◎IMDb链接 https://www.imdb.com/title/tt19354770/
◎豆瓣链接 https://movie.douban.com/subject/35848730/
◎导  演 格斯·范·桑特 Gus Van Sant
      麦克思·温克勒 Max Winkler
      詹妮弗·林奇 Jennifer Chambers Lynch
◎编  剧 乔恩·罗宾·贝茨 Jon Robin Baitz
      劳伦斯·利默 Laurence Leamer
◎演  员 娜奥米·沃茨 Naomi Watts
      汤姆·霍兰德尔 Tom Hollander
      戴安·琳恩 Diane Lane
      科洛·塞维尼 Chloë Sevigny
      卡莉斯塔·弗洛克哈特 Calista Flockhart
      黛米·摩尔 Demi Moore
      莫利·林沃德 Molly Ringwald
      杰米·阿斯丘 Jamie Askew
      艾拉·比蒂 Ella Beatty
      Yuval David
      罗亚·珊克斯 Roya Shanks
      帕维尔·萨拉耶达 Pawel Szajda
      克里斯汀·詹姆斯·沃克 Christine James Walker
      特里特·威廉斯 Treat Williams
      斯科特·齐默尔曼 Scott Zimmerman
      安东尼·古洛塔 Anthony Gullotta
      乔·曼特罗 Joe Mantello

◎简  介
    第二季改编自Laurence Leamer的畅销书籍《Capote’s Women: A True Story of Love, Betrayal, and a Swan Song for an Era》。   著名作家Truman Capote(Tom Hollander饰)与一小群最精英的女性交往密切,她们都是富有、魅力四射的社交名媛,定义了纽约上流社会过去的一个时代,而Capote将她们称为“天鹅”。这群美丽又出名的女性包括了贵妇人Barbara “Babe” Paley (Naomi Watts饰)、Slim Keith(Diane Lane饰)、C.Z. Guest(Chloë Sevigny饰)和Lee Radziwill(Calista Flockhart饰)。Capote被这些女性深深吸引,他讨得她们欢心,从而融入了她们的生活,与她们结为朋友、成为知己,但最终又背叛了她们——他在自己不加掩饰的虚构作品中大肆描述她们的生活,曝光她们最私人的秘密。Capote计划中的著作《Answered Prayers》的节选被发表在杂志《Esquire》上,这实际上摧毁了他与“天鹅”的关系,将他逐出了他所热爱的上流社会,让他陷入了自我毁灭的漩涡,并且最终也没有从中恢复。

部分资源为软字幕,移动端推荐播放器:MxPlayer,nPlayer,infuse ,其他播放器请自行尝试。

部分资源为软字幕,电脑端推荐播放器:PotPlayer,完美解码,KMPLAYER,其他播放器请自行尝试。

##### MediaInfo ######
General
Unique ID : 122762872865587382941743460499738125169 (0x5C5B44F042AE080372D08EFD3FC0E371)
Complete name : Feud.S02E03.Masquerade.1966.1080p.Hulu.WEB-DL.DDP.5.1.H.264-BlackTV.mkv
Duration : 54 min 4 s
Overall bit rate : 5 983 kb/s

Video
ID : 1
Format : AVC
Format/Info : Advanced Video Codec
Format profile : High@L4
Format settings : CABAC / 4 Ref Frames
Format settings, CABAC : Yes
Format settings, Reference frames : 4 frames
Codec ID : V_MPEG4/ISO/AVC
Duration : 54 min 4 s
Bit rate : 5 725 kb/s
Width : 1 920 pixels
Height : 1 080 pixels
Display aspect ratio : 16:9
Frame rate mode : Constant
Frame rate : 23.976 (24000/1001) FPS
Color space : YUV
Chroma subsampling : 4:2:0
Bit depth : 8 bits
Scan type : Progressive
Bits/(Pixel*Frame) : 0.115
Stream size : 2.16 GiB (96%)
Language : English
Default : Yes
Forced : No

Audio
ID : 2
Format : E-AC-3
Format/Info : Enhanced AC-3
Commercial name : Dolby Digital Plus
Codec ID : A_EAC3
Duration : 54 min 4 s
Bit rate mode : Constant
Bit rate : 256 kb/s
Channel(s) : 6 channels
Channel layout : L R C LFE Ls Rs
Sampling rate : 48.0 kHz
Frame rate : 31.250 FPS (1536 SPF)
Compression mode : Lossy
Stream size : 99.0 MiB (4%)
Language : English
Service kind : Complete Main
Default : Yes
Forced : No

Text
ID : 3
Format : UTF-8
Codec ID : S_TEXT/UTF8
Codec ID/Info : UTF-8 Plain Text
Duration : 53 min 48 s
Bit rate : 74 b/s
Frame rate : 0.312 FPS
Count of elements : 1008
Stream size : 29.2 KiB (0%)
Title : SDH
Language : English
Default : No
Forced : No

Menu
00:00:00.000 : en:Chapter 01
00:06:05.040 : en:Chapter 02
00:15:55.050 : en:Chapter 03
00:23:33.050 : en:Chapter 04
00:30:55.020 : en:Chapter 05
00:36:54.130 : en:Chapter 06
00:44:42.200 : en:Chapter 07
00:52:51.040 : en:Credits


点击图片可查看大图

软字幕无法在截图上展现,HDR版本/杜比视界版本截图会出现颜色异常,请使用支持的设备播放!



1 个附件 售价 大小 下载 时间

Feud.S02.1080p.Hulu.WEB-DL.DDP.5.1.H.264-BlackTV[1LOU.ME].torrent 0 金币 8.35K 77 次 19天前

#1楼
发帖时间:2024-02-13 09:59:41   |   回复数:0
游客组