BILL36
超凡入圣№

[2024] [日本] [剧情] [WEB-1080P] 春天来临时[第05集][中文字幕].Haru.ni.Nattara.S01.2024.1080p.KKTV.WEB-DL.x264.AAC-ZeroTV 1.0

-->

完整标题:春天来临时[第05集][中文字幕].Haru.ni.Nattara.S01.2024.1080p.KKTV.WEB-DL.x264.AAC-ZeroTV 1.03GB



◎标  题 春天来临时
◎片  名 春になったら
◎年  代 2024
◎产  地 日本
◎类  别 剧情 / 家庭
◎语  言 日语
◎IMDb链接 https://www.imdb.com/title//
◎豆瓣链接 https://movie.douban.com/subject/36660850/
◎导  演 松本佳奈 Kana Matsumoto
      秋山茉由 Mayu Akiyama
◎编  剧 福田靖 Yasushi Fukuda
◎演  员 奈绪 Nao.
      木梨宪武 Noritake Kinashi
      滨田岳 Gaku Hamada
      小林聪美 Satomi Kobayashi
      光石研 Ken Mitsuishi
      筒井真理子 Mariko Tsutsui
      松山研一 Ken'ichi Matsuyama

◎简  介
    本剧讲述了“3个月后结婚的女儿”和“3个月后离世的父亲”在实现“结婚前想做的事情清单”和“死前想做的事情清单”的3个月,是一部有笑有泪的温情家庭剧。

部分资源为软字幕,移动端推荐播放器:MxPlayer,nPlayer,infuse ,其他播放器请自行尝试。

部分资源为软字幕,电脑端推荐播放器:PotPlayer,完美解码,KMPLAYER,其他播放器请自行尝试。

##### MediaInfo ######
General
Unique ID : 279201776373572868990159789488613016318 (0xD20C4E60CA3974A293942C676AD6C2FE)
Complete name : Haru.ni.Nattara.S01E05.2024.1080p.KKTV.WEB-DL.x264.AAC-ZeroTV.mkv
Duration : 45 min 46 s
Overall bit rate : 3 216 kb/s

Video
ID : 1
Format : AVC
Format/Info : Advanced Video Codec
Format profile : [email protected]
Format settings : CABAC / 5 Ref Frames
Format settings, CABAC : Yes
Format settings, Reference frames : 5 frames
Codec ID : V_MPEG4/ISO/AVC
Duration : 45 min 46 s
Bit rate : 3 000 kb/s
Width : 1 920 pixels
Height : 1 080 pixels
Display aspect ratio : 16:9
Frame rate mode : Constant
Frame rate : 23.976 (24000/1001) FPS
Color space : YUV
Chroma subsampling : 4:2:0
Bit depth : 8 bits
Scan type : Progressive
Bits/(Pixel*Frame) : 0.060
Stream size : 989 MiB (94%)
Writing library : x264 core 142
Encoding settings : cabac=1 / ref=5 / deblock=1:0:0 / analyse=0x3:0x113 / me=umh / subme=9 / psy=1 / psy_rd=1.00:0.00 / mixed_ref=1 / me_range=32 / chroma_me=1 / trellis=1 / 8x8dct=1 / cqm=0 / deadzone=21,11 / fast_pskip=1 / chroma_qp_offset=-2 / threads=12 / lookahead_threads=1 / sliced_threads=0 / nr=0 / decimate=1 / interlaced=0 / bluray_compat=0 / stitchable=1 / constrained_intra=0 / bframes=3 / b_pyramid=2 / b_adapt=1 / b_bias=0 / direct=3 / weightb=1 / open_gop=0 / weightp=2 / keyint=24 / keyint_min=2 / scenecut=0 / intra_refresh=0 / rc_lookahead=35 / rc=abr / mbtree=1 / bitrate=3000 / ratetol=1.0 / qcomp=0.60 / qpmin=0 / qpmax=69 / qpstep=4 / vbv_maxrate=4500 / vbv_bufsize=6750 / nal_hrd=none / filler=0 / ip_ratio=1.40 / aq=1:1.00
Default : Yes
Forced : No

Audio
ID : 2
Format : AAC LC
Format/Info : Advanced Audio Codec Low Complexity
Codec ID : A_AAC-2
Duration : 45 min 46 s
Bit rate : 192 kb/s
Channel(s) : 2 channels
Channel layout : L R
Sampling rate : 44.1 kHz
Frame rate : 43.066 FPS (1024 SPF)
Compression mode : Lossy
Stream size : 62.9 MiB (6%)
Title : Japanese
Language : Japanese
Default : Yes
Forced : No

Text #1
ID : 3
Format : UTF-8
Codec ID : S_TEXT/UTF8
Codec ID/Info : UTF-8 Plain Text
Duration : 45 min 45 s
Bit rate : 48 b/s
Frame rate : 0.234 FPS
Count of elements : 643
Stream size : 16.2 KiB (0%)
Title : Chinese Simplified
Language : Chinese
Default : Yes
Forced : No

Text #2
ID : 4
Format : UTF-8
Codec ID : S_TEXT/UTF8
Codec ID/Info : UTF-8 Plain Text
Duration : 45 min 42 s
Bit rate : 48 b/s
Frame rate : 0.234 FPS
Count of elements : 642
Stream size : 16.1 KiB (0%)
Title : Chinese Traditional
Language : Chinese
Default : No
Forced : No


点击图片可查看大图

软字幕无法在截图上展现,HDR版本/杜比视界版本截图会出现颜色异常,请使用支持的设备播放!



1 个附件 售价 大小 下载 时间

Haru.ni.Nattara.S01.2024.1080p.KKTV.WEB-DL.x264.AAC-ZeroTV[1LOU.ME].torrent 0 金币 5.27K 238 次 19天前

#1楼
发帖时间:2024-02-13 10:02:45   |   回复数:0
游客组