BILL36
超凡入圣№

[2024] [日本] [剧情] [WEB-1080P] 在这种地方吃背叛饭[第04集][无字片源].1080p.HuluJP.WEB-DL.AAC.2.0.H.264-BlackTV 1.07GB

-->

完整标题:在这种地方吃背叛饭[第04集][无字片源].1080p.HuluJP.WEB-DL.AAC.2.0.H.264-BlackTV 1.07GB



◎标  题 在这种地方吃背叛饭
◎片  名 こんなところで裏切り飯
◎年  代 2024
◎产  地 日本
◎类  别 剧情 / 喜剧
◎语  言 日语
◎IMDb链接 https://www.imdb.com/title//
◎豆瓣链接 https://movie.douban.com/subject/36686371/
◎导  演 宫冈太郎 Tarô Miyaoka
◎演  员 志田彩良 Sara Shida
      伊武雅刀 Masatô Ibu
      川岛润哉 Junya Kawashima
      梅田诚弘 Masahiro Umeda

◎简  介
    一手缔造了遍布全国酒店的“榊原酒店集团”的铁腕社长榊原总一朗(伊武雅刀饰)烦恼不已。“最近吃什么都不感动,难道是因为我吃遍了日本全国的美食……”。榊原的前任产假代理秘书——神秘女性小野寺真理子(志田彩良饰)来到她面前。在公司里所有人都害怕榊原的时候,真理子意外地被任命为榊原的出差代理人。“听好了……作为秘书,社长的伙食才是压力最大的工作。”可是,在出差时,真理子给榊原准备的却是令人震惊的“背叛饭”。

部分资源为软字幕,移动端推荐播放器:MxPlayer,nPlayer,infuse ,其他播放器请自行尝试。

部分资源为软字幕,电脑端推荐播放器:PotPlayer,完美解码,KMPLAYER,其他播放器请自行尝试。

##### MediaInfo ######
General
Unique ID : 302037499756997719490494821521131841876 (0xE33A4E7781025233F59D1265D0102954)
Complete name : Hidden.Speciality.Food.in.Japan.S01E04.1080p.HuluJP.WEB-DL.AAC.2.0.H.264-BlackTV.mkv
Duration : 24 min 32 s
Overall bit rate : 6 230 kb/s

Video
ID : 1
Format : AVC
Format/Info : Advanced Video Codec
Format profile : High@L4
Format settings : CABAC / 4 Ref Frames
Format settings, CABAC : Yes
Format settings, Reference frames : 4 frames
Codec ID : V_MPEG4/ISO/AVC
Duration : 24 min 32 s
Bit rate : 5 974 kb/s
Width : 1 920 pixels
Height : 1 080 pixels
Display aspect ratio : 16:9
Frame rate mode : Constant
Frame rate : 29.970 (30000/1001) FPS
Color space : YUV
Chroma subsampling : 4:2:0
Bit depth : 8 bits
Scan type : Progressive
Bits/(Pixel*Frame) : 0.096
Stream size : 1.02 GiB (96%)
Language : Japanese
Default : Yes
Forced : No
Color range : Limited
Color primaries : BT.709
Transfer characteristics : BT.709
Matrix coefficients : BT.709

Audio
ID : 2
Format : AAC LC
Format/Info : Advanced Audio Codec Low Complexity
Codec ID : A_AAC-2
Duration : 24 min 32 s
Bit rate : 253 kb/s
Channel(s) : 2 channels
Channel layout : L R
Sampling rate : 48.0 kHz
Frame rate : 46.875 FPS (1024 SPF)
Compression mode : Lossy
Stream size : 44.5 MiB (4%)
Language : Japanese
Default : Yes
Forced : No


点击图片可查看大图

软字幕无法在截图上展现,HDR版本/杜比视界版本截图会出现颜色异常,请使用支持的设备播放!



1 个附件 售价 大小 下载 时间

1080p.HuluJP.WEB-DL.AAC.2.0.H.264-BlackTV[1LOU.ME].torrent 0 金币 5.38K 105 次 19天前

#1楼
发帖时间:2024-02-13 10:03:22   |   回复数:0
游客组