BILL36
超凡入圣№

[2024] [日本] [剧情] [WEB-1080P] 无法消除的“我” ―复仇的连锁―[第06集][无字片源].1080p.HuluJP.WEB-DL.AAC.2.0.H.264-BlackTV 0.53GB

-->

完整标题:无法消除的“我” ―复仇的连锁―[第06集][无字片源].1080p.HuluJP.WEB-DL.AAC.2.0.H.264-BlackTV 0.53GB



◎标  题 无法消除的“我” ―复仇的连锁―
◎片  名 消せない『私』―復讐の連鎖-
◎年  代 2024
◎产  地 日本
◎类  别 剧情
◎语  言 日语
◎IMDb链接 https://www.imdb.com/title//
◎豆瓣链接 https://movie.douban.com/subject/36686647/
◎导  演 中茎强 Tsuyoshi Nakakuki
◎演  员 志田彩良 Sara Shida
      本乡奏多 Kanata Hongô
      吉本实忧 Miyu Yoshimoto
      柄本时生 Tokio Emoto
      片山友希 Yuki Katayama
      泽野弘之 Hiroyuki Sawano

◎简  介
    本剧改编自黑田忍乃的漫画,虽然描写的是弱者对前欺凌者进行劝善惩恶的故事,但并不是单纯的复仇故事,而是“爽快”的复仇娱乐。志田饰演因卑劣的同学们的恶意连锁而跌落谷底的主人公·灰原硝子,本乡奏多饰演对硝子的命运产生巨大影响的德道仁。

部分资源为软字幕,移动端推荐播放器:MxPlayer,nPlayer,infuse ,其他播放器请自行尝试。

部分资源为软字幕,电脑端推荐播放器:PotPlayer,完美解码,KMPLAYER,其他播放器请自行尝试。

##### MediaInfo ######
General
Unique ID : 17449863786298724500997337492798556517 (0xD20B8B57AA579474B54188C693FC965)
Complete name : I.That.Cannot.Be.Erased.-.A.Chain.of.Revenge.-.S01E06.1080p.HuluJP.WEB-DL.AAC.2.0.H.264-BlackTV.mkv
Duration : 22 min 8 s
Overall bit rate : 3 445 kb/s

Video
ID : 1
Format : AVC
Format/Info : Advanced Video Codec
Format profile : High@L4
Format settings : CABAC / 4 Ref Frames
Format settings, CABAC : Yes
Format settings, Reference frames : 4 frames
Codec ID : V_MPEG4/ISO/AVC
Duration : 22 min 7 s
Bit rate : 3 188 kb/s
Width : 1 920 pixels
Height : 1 080 pixels
Display aspect ratio : 16:9
Frame rate mode : Constant
Frame rate : 29.970 (30000/1001) FPS
Color space : YUV
Chroma subsampling : 4:2:0
Bit depth : 8 bits
Scan type : Progressive
Bits/(Pixel*Frame) : 0.051
Stream size : 505 MiB (93%)
Language : Japanese
Default : Yes
Forced : No
Color range : Limited
Color primaries : BT.709
Transfer characteristics : BT.709
Matrix coefficients : BT.709

Audio
ID : 2
Format : AAC LC
Format/Info : Advanced Audio Codec Low Complexity
Codec ID : A_AAC-2
Duration : 22 min 8 s
Bit rate : 253 kb/s
Channel(s) : 2 channels
Channel layout : L R
Sampling rate : 48.0 kHz
Frame rate : 46.875 FPS (1024 SPF)
Compression mode : Lossy
Stream size : 40.1 MiB (7%)
Language : Japanese
Default : Yes
Forced : No

Text
ID : 3
Format : UTF-8
Codec ID : S_TEXT/UTF8
Codec ID/Info : UTF-8 Plain Text
Duration : 21 min 41 s
Bit rate : 71 b/s
Frame rate : 0.227 FPS
Count of elements : 296
Stream size : 11.4 KiB (0%)
Title : SDH
Language : Japanese
Default : No
Forced : No


点击图片可查看大图

软字幕无法在截图上展现,HDR版本/杜比视界版本截图会出现颜色异常,请使用支持的设备播放!



1 个附件 售价 大小 下载 时间

1080p.HuluJP.WEB-DL.AAC.2.0.H.264-BlackTV[1LOU.ME].torrent 0 金币 4.09K 91 次 19天前

#1楼
发帖时间:2024-02-13 10:07:51   |   回复数:0
游客组