BILL36
超凡入圣№

[2024] [韩国] [剧情] [WEB-1080P] 请和我的老公结婚[第13集][简繁英字幕].Marry.My.Husband.S01.2024.1080p.AMZN.WEB-DL.H264.DDP2.0-Ze

-->

完整标题:请和我的老公结婚[第13集][简繁英字幕].Marry.My.Husband.S01.2024.1080p.AMZN.WEB-DL.H264.DDP2.0-ZeroTV 2.31GB



◎标  题 请和我的老公结婚
◎译  名 请嫁给我的丈夫 / Marry My Husband
◎片  名 내 남편과 결혼해줘
◎年  代 2024
◎产  地 韩国
◎类  别 剧情 / 悬疑
◎语  言 韩语
◎IMDb评分 8.2/10 (689人评价)
◎IMDb链接 https://www.imdb.com/title/tt26628595/
◎豆瓣评分 7.1/10 (5859人评价)
◎豆瓣链接 https://movie.douban.com/subject/36228676/
◎导  演 朴元国 Park Won Gook
◎编  剧 申儒潭 Shin Yoo-dam
◎演  员 朴敏英 Min-young Park
      罗钟赞 Na Jong Chan
      李伊庚 Yi-Kyeong Lee
      宋昰昀 Ha-yoon Song
      李起光 Gi-Kwang Lee
      孔敏晶 Min-jung Gong
      宝儿 BoA

◎简  介
    该剧讲述女主姜智媛得了癌症,她目睹闺蜜和老公出轨,还被自己的老公杀死后,她突然穿越回到10年前,与同公司部长一起展开复仇的故事。

部分资源为软字幕,移动端推荐播放器:MxPlayer,nPlayer,infuse ,其他播放器请自行尝试。

部分资源为软字幕,电脑端推荐播放器:PotPlayer,完美解码,KMPLAYER,其他播放器请自行尝试。

##### MediaInfo ######
General
Unique ID : 84827945421153943754260896971559097854 (0x3FD1449D01ECEB19B8EF03DEE5A955FE)
Complete name : Marry.My.Husband.S01E13.2024.1080p.AMZN.WEB-DL.H264.DDP2.0-ZeroTV.mkv
Duration : 59 min 50 s
Overall bit rate : 5 513 kb/s

Video
ID : 1
Format : AVC
Format/Info : Advanced Video Codec
Format profile : High@L4
Format settings : CABAC / 4 Ref Frames
Format settings, CABAC : Yes
Format settings, Reference frames : 4 frames
Codec ID : V_MPEG4/ISO/AVC
Duration : 59 min 50 s
Bit rate mode : Constant
Bit rate : 5 285 kb/s
Nominal bit rate : 10 000 kb/s
Width : 1 920 pixels
Height : 1 080 pixels
Display aspect ratio : 16:9
Frame rate mode : Constant
Frame rate : 23.976 (24000/1001) FPS
Color space : YUV
Chroma subsampling : 4:2:0
Bit depth : 8 bits
Scan type : Progressive
Bits/(Pixel*Frame) : 0.106
Stream size : 2.21 GiB (96%)
Default : Yes
Forced : No
Color range : Limited
Color primaries : BT.709
Transfer characteristics : BT.709
Matrix coefficients : BT.709

Audio
ID : 2
Format : E-AC-3
Format/Info : Enhanced AC-3
Commercial name : Dolby Digital Plus
Codec ID : A_EAC3
Duration : 59 min 50 s
Bit rate mode : Constant
Bit rate : 224 kb/s
Channel(s) : 2 channels
Channel layout : L R
Sampling rate : 48.0 kHz
Frame rate : 31.250 FPS (1536 SPF)
Compression mode : Lossy
Stream size : 95.9 MiB (4%)
Language : Korean
Service kind : Complete Main
Default : Yes
Forced : No

Text #1
ID : 3
Format : UTF-8
Codec ID : S_TEXT/UTF8
Codec ID/Info : UTF-8 Plain Text
Duration : 59 min 3 s
Bit rate : 77 b/s
Frame rate : 0.194 FPS
Count of elements : 687
Stream size : 33.6 KiB (0%)
Language : Arabic
Default : No
Forced : No

Text #2
ID : 4
Format : UTF-8
Codec ID : S_TEXT/UTF8
Codec ID/Info : UTF-8 Plain Text
Duration : 59 min 3 s
Bit rate : 49 b/s
Frame rate : 0.194 FPS
Count of elements : 687
Stream size : 21.5 KiB (0%)
Language : German
Default : No
Forced : No

Text #3
ID : 5
Format : UTF-8
Codec ID : S_TEXT/UTF8
Codec ID/Info : UTF-8 Plain Text
Duration : 59 min 3 s
Bit rate : 44 b/s
Frame rate : 0.194 FPS
Count of elements : 686
Stream size : 19.5 KiB (0%)
Language : English
Default : No
Forced : No

Text #4
ID : 6
Format : UTF-8
Codec ID : S_TEXT/UTF8
Codec ID/Info : UTF-8 Plain Text
Duration : 59 min 3 s
Bit rate : 45 b/s
Frame rate : 0.194 FPS
Count of elements : 687
Stream size : 19.8 KiB (0%)
Title : Latin American
Language : Spanish
Default : No
Forced : No

Text #5
ID : 7
Format : UTF-8
Codec ID : S_TEXT/UTF8
Codec ID/Info : UTF-8 Plain Text
Duration : 59 min 3 s
Bit rate : 46 b/s
Frame rate : 0.194 FPS
Count of elements : 687
Stream size : 20.2 KiB (0%)
Title : European
Language : Spanish
Default : No
Forced : No

Text #6
ID : 8
Format : UTF-8
Codec ID : S_TEXT/UTF8
Codec ID/Info : UTF-8 Plain Text
Duration : 59 min 3 s
Bit rate : 46 b/s
Frame rate : 0.194 FPS
Count of elements : 687
Stream size : 20.0 KiB (0%)
Title : European
Language : French
Default : No
Forced : No

Text #7
ID : 9
Format : UTF-8
Codec ID : S_TEXT/UTF8
Codec ID/Info : UTF-8 Plain Text
Duration : 59 min 3 s
Bit rate : 123 b/s
Frame rate : 0.194 FPS
Count of elements : 687
Stream size : 53.6 KiB (0%)
Language : Hindi
Default : No
Forced : No

Text #8
ID : 10
Format : UTF-8
Codec ID : S_TEXT/UTF8
Codec ID/Info : UTF-8 Plain Text
Duration : 59 min 3 s
Bit rate : 46 b/s
Frame rate : 0.194 FPS
Count of elements : 687
Stream size : 20.1 KiB (0%)
Language : Indonesian
Default : No
Forced : No

Text #9
ID : 11
Format : UTF-8
Codec ID : S_TEXT/UTF8
Codec ID/Info : UTF-8 Plain Text
Duration : 59 min 3 s
Bit rate : 44 b/s
Frame rate : 0.194 FPS
Count of elements : 687
Stream size : 19.4 KiB (0%)
Language : Italian
Default : No
Forced : No

Text #10
ID : 12
Format : UTF-8
Codec ID : S_TEXT/UTF8
Codec ID/Info : UTF-8 Plain Text
Duration : 59 min 3 s
Bit rate : 46 b/s
Frame rate : 0.184 FPS
Count of elements : 652
Stream size : 20.2 KiB (0%)
Language : Japanese
Default : No
Forced : No

Text #11
ID : 13
Format : UTF-8
Codec ID : S_TEXT/UTF8
Codec ID/Info : UTF-8 Plain Text
Duration : 59 min 30 s
Bit rate : 67 b/s
Frame rate : 0.236 FPS
Count of elements : 842
Stream size : 29.5 KiB (0%)
Title : SDH
Language : Korean
Default : No
Forced : No

Text #12
ID : 14
Format : UTF-8
Codec ID : S_TEXT/UTF8
Codec ID/Info : UTF-8 Plain Text
Duration : 59 min 3 s
Bit rate : 48 b/s
Frame rate : 0.194 FPS
Count of elements : 687
Stream size : 21.0 KiB (0%)
Language : Malay
Default : No
Forced : No

Text #13
ID : 15
Format : UTF-8
Codec ID : S_TEXT/UTF8
Codec ID/Info : UTF-8 Plain Text
Duration : 59 min 3 s
Bit rate : 43 b/s
Frame rate : 0.193 FPS
Count of elements : 685
Stream size : 19.0 KiB (0%)
Title : Brazilian
Language : Portuguese
Default : No
Forced : No

Text #14
ID : 16
Format : UTF-8
Codec ID : S_TEXT/UTF8
Codec ID/Info : UTF-8 Plain Text
Duration : 59 min 3 s
Bit rate : 123 b/s
Frame rate : 0.194 FPS
Count of elements : 687
Stream size : 53.6 KiB (0%)
Language : Thai
Default : No
Forced : No

Text #15
ID : 17
Format : UTF-8
Codec ID : S_TEXT/UTF8
Codec ID/Info : UTF-8 Plain Text
Duration : 59 min 3 s
Bit rate : 46 b/s
Frame rate : 0.194 FPS
Count of elements : 687
Stream size : 20.2 KiB (0%)
Title : Chinese Traditional
Language : Chinese
Default : No
Forced : No

Text #16
ID : 18
Format : UTF-8
Codec ID : S_TEXT/UTF8
Codec ID/Info : UTF-8 Plain Text
Duration : 59 min 3 s
Bit rate : 46 b/s
Frame rate : 0.194 FPS
Count of elements : 687
Stream size : 20.2 KiB (0%)
Title : Chinese Simplified
Language : Chinese
Default : Yes
Forced : No


点击图片可查看大图

软字幕无法在截图上展现,HDR版本/杜比视界版本截图会出现颜色异常,请使用支持的设备播放!



1 个附件 售价 大小 下载 时间

Marry.My.Husband.S01.2024.1080p.AMZN.WEB-DL.H264.DDP2.0-ZeroTV[1LOU.ME].torrent 0 金币 8.49K 2667 次 19天前

#1楼
发帖时间:2024-02-13 10:10:23   |   回复数:0
游客组