BILL36
超凡入圣№

[2024] [大陆] [剧情] [WEB-4K] 在暴雪时分[杜比视界版本][第01-18集][国语配音/中文字幕].2024.2160p.WEB-DL.H265.DV.DDP5.1-BlackTV 43.97

-->

完整标题:在暴雪时分[杜比视界版本][第01-18集][国语配音/中文字幕].2024.2160p.WEB-DL.H265.DV.DDP5.1-BlackTV 43.97GB



◎标  题 在暴雪时分
◎译  名 Amidst a Snowstorm of Love
◎年  代 2024
◎产  地 中国大陆
◎类  别 剧情 / 爱情
◎语  言 汉语普通话
◎IMDb链接 https://www.imdb.com/title/tt28183145/
◎豆瓣链接 https://movie.douban.com/subject/35496759/
◎导  演 黄天仁 Tien-Jen Huang
      俞波 Bo Yu
◎编  剧 墨宝非宝 Mobao Feibao
◎演  员 吴磊 Leo Wu
      赵今麦 Jinmai Zhao
      王星越 Xingyue Wang
      丁笑滢 Xiaoying Ding
      陈靖可 Jingke Chan
      董子凡 Zifan Dong
      王润泽 Runze Wang
      韩东霖 Donglin Han
      王玥晞 Yuexi Wang
      王佳璇 Jiaxuan Wang
      李澳 Ao Li
      孔冉 Ran Kong
      李建义 Jianyi Li
      姜宏波 Hongbo Jiang
      代斯 Daisy
      海铃 Ling Hai
      丁晓明 Xiaoming Ding

◎简  介
    昔日天才级职业斯诺克选手林亦扬(吴磊 饰)与当红九球选手殷果(赵今麦 饰)相遇在一场十年难得一遇的暴雪之夜。在殷果表弟的助攻之下,两人慢慢熟识,殷果也了解到林亦扬的往事。原来林亦扬曾经也是轰动一时的斯诺克天才,在一次比赛中因对裁判判罚有异议,争取时无意冲撞裁判而被禁赛,少年气盛的他不服判决,竟直接宣布退役,从此离开了自己引以为傲的斯诺克事业。殷果的出现,让林亦扬的人生轨迹再次转变,林亦扬不仅开始努力地追求殷果,还在殷果的带动下重拾最初的梦想,返回斯诺克赛场。最终二人共攀事业高峰,一同为职业台球事业贡献力量,并携手教练与队友,共推全民健身台球项目发展。

部分资源为软字幕,移动端推荐播放器:MxPlayer,nPlayer,infuse ,其他播放器请自行尝试。

部分资源为软字幕,电脑端推荐播放器:PotPlayer,完美解码,KMPLAYER,其他播放器请自行尝试。

##### MediaInfo ######
General
Unique ID : 146435448896276061554859409749660467730 (0x6E2A710C5D3B3683384B8DF70B8D0212)
Complete name : Amidst.a.Snowstorm.of.Love.S01E01.2024.2160p.WEB-DL.H265.DV.DDP2.0-BlackTV.mkv
Duration : 47 min 18 s
Overall bit rate : 6 421 kb/s

Video
ID : 1
Format : HEVC
Format/Info : High Efficiency Video Coding
Format profile : Main 10@L5@Main
HDR format : Dolby Vision, Version 1.0, dvhe.05.06, BL+RPU
Codec ID : V_MPEGH/ISO/HEVC
Duration : 47 min 18 s
Bit rate : 5 909 kb/s
Width : 3 840 pixels
Height : 1 920 pixels
Display aspect ratio : 2.000
Frame rate mode : Constant
Frame rate : 25.000 FPS
Color space : YUV
Chroma subsampling : 4:2:0
Bit depth : 10 bits
Bits/(Pixel*Frame) : 0.032
Stream size : 1.95 GiB (92%)
Writing library : CHDbist-V265-1.6.9.1-chdbits.co
Language : Chinese
Default : Yes
Forced : No
Color range : Full

Audio #1
ID : 2
Format : E-AC-3
Format/Info : Enhanced AC-3
Commercial name : Dolby Digital Plus
Codec ID : A_EAC3
Duration : 47 min 18 s
Bit rate mode : Constant
Bit rate : 256 kb/s
Channel(s) : 2 channels
Channel layout : L R
Sampling rate : 48.0 kHz
Frame rate : 31.250 FPS (1536 SPF)
Bit depth : 32 bits
Compression mode : Lossy
Stream size : 86.6 MiB (4%)
Title : Mandarin [DDP2.0]
Language : Chinese
Service kind : Complete Main
Default : Yes
Forced : No

Audio #2
ID : 3
Format : AAC LC
Format/Info : Advanced Audio Codec Low Complexity
Codec ID : A_AAC-2
Duration : 47 min 18 s
Bit rate : 253 kb/s
Channel(s) : 2 channels
Channel layout : L R
Sampling rate : 48.0 kHz
Frame rate : 46.875 FPS (1024 SPF)
Compression mode : Lossy
Stream size : 85.7 MiB (4%)
Title : Mandarin [AAC2.0]
Language : Chinese
Default : No
Forced : No


点击图片可查看大图

软字幕无法在截图上展现,HDR版本/杜比视界版本截图会出现颜色异常,请使用支持的设备播放!



1 个附件 售价 大小 下载 时间

2024.2160p.WEB-DL.H265.DV.DDP5.1-BlackTV[1LOU.ME].torrent 0 金币 114.49K 287 次 19天前

#1楼
发帖时间:2024-02-13 10:28:08   |   回复数:0
游客组