BILL36
隐世仙人♂

[2024] [大陆] [剧情] [WEB-4K] 家族荣耀之继承者[第08-09集][国粤多音轨/中文字幕].Modern.Dynasty.S02.2024.2160p.WEB-DL.H265.AAC.2Aud

-->

完整标题:家族荣耀之继承者[第08-09集][国粤多音轨/中文字幕].Modern.Dynasty.S02.2024.2160p.WEB-DL.H265.AAC.2Audio-BlackTV 2.19GB



◎标  题 家族荣耀之继承者
◎译  名 家族继承者 / 家族荣耀2
◎年  代 2024
◎产  地 中国大陆 / 中国香港
◎类  别 剧情
◎语  言 粤语
◎IMDb链接 https://www.imdb.com/title//
◎豆瓣链接 https://movie.douban.com/subject/36191255/
◎导  演 蔡晶盛 Ching-Shing Choy
      陈新侠 Xinxia Chen
◎编  剧 黄国辉 Kowk Fai Huang
      萧光汉 Guanghan Xiao
      蔡淑贤 Suk Yin Choi
      廖雨琦
      苏侃风
      冯伟涛
◎演  员 佘诗曼 Charmaine Sheh
      林峯 Raymond Lam
      罗子溢 Chung Him Law
      罗嘉良 Gallen Law
      许绍雄 Siu-Hung Hui
      黄浩然 Raymond Wong Ho-Yin
      余安安 On-on Yu
      张凤妮 Betsy Cheung
      陈静 Dada Chan
      梁靖琪 Toby Leung
      陈滢 Jeannie Chan
      王敏奕 Venus Wong
      吴岱融 Hugo Ng Doi-Yung
      刘江 Kong Lau
      龚慈恩 Mimi Kung
      刘浩龙 Wilfred Lau
      梁诺妍 Inez Leong

◎简  介
    豪门丘氏素来以重男轻女闻名,众所周知丘家产业会由第三代唯一的男孙丘智斌(罗子溢 饰)继承。丘老太爷因中风昏迷,一纸由其亲笔签署的委托书震惊众人:他竟然委托长孙女丘皓儿(佘诗曼 饰)代他执行集团主席一职。但这份委托书并没有把丘皓儿送往权力的高峰,而是推入了风暴的中心。

部分资源为软字幕,移动端推荐播放器:MxPlayer,nPlayer,infuse ,其他播放器请自行尝试。

部分资源为软字幕,电脑端推荐播放器:PotPlayer,完美解码,KMPLAYER,其他播放器请自行尝试。

下载端推荐纯BT下载软件:qBittorrent,Bitcomet,uTorrent ,其他下载软件请自行尝试。不支持吸血迅雷。

##### MediaInfo ######
General
Unique ID : 281928209421367362448388516281962399977 (0xD41965E7DD18EC421D904393541308E9)
Complete name : Modern.Dynasty.S02E08.2024.2160p.WEB-DL.H265.AAC.2Audio-BlackTV.mkv
Duration : 45 min 1 s
Overall bit rate : 3 477 kb/s

Video
ID : 1
Format : HEVC
Format/Info : High Efficiency Video Coding
Format profile : Main@L5@Main
Codec ID : V_MPEGH/ISO/HEVC
Duration : 45 min 1 s
Bit rate : 3 090 kb/s
Width : 3 840 pixels
Height : 2 160 pixels
Display aspect ratio : 16:9
Frame rate mode : Constant
Frame rate : 25.000 FPS
Color space : YUV
Chroma subsampling : 4:2:0
Bit depth : 8 bits
Bits/(Pixel*Frame) : 0.015
Stream size : 995 MiB (89%)
Language : Chinese
Default : Yes
Forced : No
Color range : Limited
Color primaries : BT.709
Transfer characteristics : BT.709
Matrix coefficients : BT.709
VENDOR_ID : [0][0][0][0]

Audio #1
ID : 2
Format : AAC LC
Format/Info : Advanced Audio Codec Low Complexity
Codec ID : A_AAC-2
Duration : 45 min 1 s
Bit rate : 192 kb/s
Channel(s) : 2 channels
Channel layout : L R
Sampling rate : 44.1 kHz
Frame rate : 43.066 FPS (1024 SPF)
Compression mode : Lossy
Stream size : 61.8 MiB (6%)
Title : Cantonese [AAC2.0]
Language : Chinese
Default : Yes
Forced : No

Audio #2
ID : 3
Format : AAC LC
Format/Info : Advanced Audio Codec Low Complexity
Codec ID : A_AAC-2
Duration : 45 min 1 s
Bit rate : 192 kb/s
Channel(s) : 2 channels
Channel layout : L R
Sampling rate : 44.1 kHz
Frame rate : 43.066 FPS (1024 SPF)
Compression mode : Lossy
Stream size : 61.8 MiB (6%)
Title : Mandarin [AAC2.0]
Language : Chinese
Default : No
Forced : No
VENDOR_ID : [0][0][0][0]

Menu
00:03:31.103 : zh:丽琪向丘守仁提出 舅舅承包洗衣房的工作
00:11:42.627 : zh:丘守仁找智斌 智斌琳达通宵完成计划书
00:21:31.201 : zh:戴绮婷知晓洗衣房工作被承包 质问智斌
00:29:54.479 : zh:芷彤开导娜娜 芷彤怀疑智斌与邵家碧关系




1 个附件 售价 大小 下载 时间

Modern.Dynasty.S02.2024.2160p.WEB-DL.H265.AAC.2Audio-BlackTV[1LOU.ME].torrent 0 金币 8.09K 714 次 4天前

#1楼
发帖时间:2024-05-16 00:35:29   |   回复数:0
游客组