BILL36
隐世仙人♂

[2024] [大陆] [喜剧] [WEB-4K] 小绿和小蓝 第五季[第10集][国语配音/中文字幕].BERYL.and.SAPPHIRE.S05.2018.2160p.WEB-DL.H265.AAC-Lel

-->

完整标题:小绿和小蓝 第五季[第10集][国语配音/中文字幕].BERYL.and.SAPPHIRE.S05.2018.2160p.WEB-DL.H265.AAC-LelveTV 0.15GB



◎标  题 小绿和小蓝 第五季
◎年  代 2024
◎产  地 中国大陆
◎类  别 喜剧 / 动画
◎IMDb链接 https://www.imdb.com/title//
◎豆瓣链接 https://movie.douban.com/subject/36800191/

◎简  介
    伯伦希尔魔法学院的教授永乐在图书馆偶遇了一只叫灰羽的精灵,得知精灵都是有愿望未完成才会留在世间,永乐决定帮灰羽完达成愿望。因为灰羽喜欢听永乐读书,永乐便经常与灰羽挑灯夜读,灰羽也一直听得兴致盎然,一人一精灵相处好不融洽。可没想到当永乐帮助灰羽实体化之后,灰羽竟然性情大变,为了让灰羽不再继续黑化,永乐不得不让灰羽消失在世间……

部分资源为软字幕,移动端推荐播放器:MxPlayer,nPlayer,infuse ,其他播放器请自行尝试。

部分资源为软字幕,电脑端推荐播放器:PotPlayer,完美解码,KMPLAYER,其他播放器请自行尝试。

下载端推荐纯BT下载软件:qBittorrent,Bitcomet,uTorrent ,其他下载软件请自行尝试。不支持吸血迅雷。

##### MediaInfo ######
General
Complete name : BERYL.and.SAPPHIRE.S05E10.2018.2160p.WEB-DL.H265.AAC-LelveTV.mp4
Duration : 8 min 1 s
Overall bit rate : 2 636 kb/s

Video
ID : 1
Format : HEVC
Format/Info : High Efficiency Video Coding
Format profile : [email protected]@Main
Codec ID : hev1
Codec ID/Info : High Efficiency Video Coding
Duration : 8 min 1 s
Bit rate : 2 444 kb/s
Width : 3 840 pixels
Height : 2 160 pixels
Display aspect ratio : 16:9
Frame rate mode : Variable
Frame rate : 24.000 FPS
Minimum frame rate : 23.810 FPS
Maximum frame rate : 24.390 FPS
Color space : YUV
Chroma subsampling : 4:2:0
Bit depth : 8 bits
Bits/(Pixel*Frame) : 0.012
Stream size : 140 MiB (93%)
Encoded date : UTC 2024-05-15 02:00:00
Tagged date : UTC 2024-05-15 02:00:00
Color range : Limited
Color primaries : BT.709
Transfer characteristics : BT.709
Matrix coefficients : BT.709
Menus : 4
Codec configuration box : hvcC

Audio
ID : 2
Format : AAC LC
Format/Info : Advanced Audio Codec Low Complexity
Codec ID : mp4a-40-2
Duration : 8 min 1 s
Bit rate mode : Constant
Bit rate : 175 kb/s
Channel(s) : 2 channels
Channel layout : L R
Sampling rate : 48.0 kHz
Frame rate : 46.875 FPS (1024 SPF)
Compression mode : Lossy
Stream size : 10.0 MiB (7%)
Default : Yes
Alternate group : 1
Encoded date : UTC 2024-05-15 02:00:00
Tagged date : UTC 2024-05-15 02:00:00
Menus : 4

Menu #1
ID : 4
Format : Timed Text
Codec ID : text
Duration : 8 min 0 s
Language : English
Encoded date : UTC 2024-05-15 02:00:00
Tagged date : UTC 2024-05-15 02:00:00
Bit rate mode : CBR
Menu For : 1,2
Duration_FirstFrame : -292000
Duration_LastFrame : -329000
00:00:00.000 : 片头
00:01:15.000 : 正片
00:07:22.000 : 片尾
Bit rate mode : Constant

Menu #2
00:00:00.000 : 片头
00:01:15.000 : 正片
00:07:22.000 : 片尾




1 个附件 售价 大小 下载 时间

BERYL.and.SAPPHIRE.S05.2018.2160p.WEB-DL.H265.AAC-LelveTV[1LOU.ME].torrent 0 金币 2.90K 49 次 4天前

#1楼
发帖时间:2024-05-16 00:36:27   |   回复数:0
游客组