BILL36
隐世仙人♂

[2024] [大陆] [剧情] [WEB-4K] 少年巴比伦[第25-26集][国语配音/中文字幕].Young.Babylon.S01.2024.2160p.WEB-DL.H265.AAC-LelveTV 2

-->

完整标题:少年巴比伦[第25-26集][国语配音/中文字幕].Young.Babylon.S01.2024.2160p.WEB-DL.H265.AAC-LelveTV 2.45GB



◎标  题 少年巴比伦
◎译  名 少年巴比伦剧版 / Young Babylon
◎年  代 2024
◎产  地 中国大陆
◎类  别 剧情 / 爱情
◎语  言 汉语普通话
◎IMDb链接 https://www.imdb.com/title/tt26442657/
◎豆瓣链接 https://movie.douban.com/subject/35483390/
◎导  演 林育贤 Yu-Hsien Lin
◎编  剧 何亮
      朱金晨 Jinchen Zhu
      张柳 Liu Zhang
      母紫馨 Yolanda
      路内 Nei Lu
◎演  员 杨采钰 Caiyu Yang
      侯明昊 Minghao Hou
      向涵之 Hanzhi Xiang
      费启鸣 Qiming Fei
      张腾 Teng Zhang
      陈奕歌 Yige Chen
      隋媛 Yuan Sui
      张淞 Song Zhang
      王蔷 Qiang Wang
      张天舒 Tianshu Zhang

◎简  介
    上世纪90年代初,东南沿海小城——福城,一群在时代列车上追赶青春的少年,他们热烈而莽撞,肆意的野蛮生长。在寻找星辰大海中完成“平凡又不平凡”的蜕变,在青春最香甜灿烂的年代,努力迎向属于他们的光辉岁月,收获了成长与爱情。

部分资源为软字幕,移动端推荐播放器:MxPlayer,nPlayer,infuse ,其他播放器请自行尝试。

部分资源为软字幕,电脑端推荐播放器:PotPlayer,完美解码,KMPLAYER,其他播放器请自行尝试。

下载端推荐纯BT下载软件:qBittorrent,Bitcomet,uTorrent ,其他下载软件请自行尝试。不支持吸血迅雷。

##### MediaInfo ######
General
Complete name : Young.Babylon.S01E25.2024.2160p.WEB-DL.H265.AAC-LelveTV.mp4
Duration : 42 min 12 s
Overall bit rate mode : Variable
Overall bit rate : 3 586 kb/s

Video
ID : 1
Format : HEVC
Format/Info : High Efficiency Video Coding
Format profile : Main@L5@Main
Codec ID : hev1
Codec ID/Info : High Efficiency Video Coding
Duration : 42 min 12 s
Source duration : 42 min 12 s
Bit rate : 3 455 kb/s
Width : 3 840 pixels
Height : 1 920 pixels
Display aspect ratio : 2.000
Frame rate mode : Variable
Frame rate : 25.000 FPS
Minimum frame rate : 24.993 FPS
Maximum frame rate : 25.007 FPS
Color space : YUV
Chroma subsampling : 4:2:0
Bit depth : 8 bits
Bits/(Pixel*Frame) : 0.019
Stream size : 1.02 GiB (96%)
Source stream size : 1.02 GiB (96%)
Writing library : Tencent-V265-1.6.9.1-p1k184g16lh64f4ra1.
Color range : Limited
Color primaries : BT.709
Matrix coefficients : BT.709
Codec configuration box : hvcC

Audio
ID : 2
Format : AAC LC
Format/Info : Advanced Audio Codec Low Complexity
Codec ID : mp4a-40-2
Duration : 42 min 12 s
Bit rate mode : Variable
Bit rate : 125 kb/s
Maximum bit rate : 129 kb/s
Channel(s) : 2 channels
Channel layout : L R
Sampling rate : 48.0 kHz
Frame rate : 46.875 FPS (1024 SPF)
Compression mode : Lossy
Stream size : 37.8 MiB (3%)
Default : Yes
Alternate group : 1




1 个附件 售价 大小 下载 时间

Young.Babylon.S01.2024.2160p.WEB-DL.H265.AAC-LelveTV[1LOU.ME].torrent 0 金币 8.74K 70 次 4天前

#1楼
发帖时间:2024-05-16 00:38:23   |   回复数:0
游客组