BILL36
隐世仙人♂

[2019] [大陆] [剧情] [WEB-4K] 庆余年 第一季[第22-24集][中文字幕].Joy.of.Life.S01.2024.2160p.WEB-DL.H265.AAC-LelveTV 6.93GB

-->

完整标题:庆余年 第一季[第22-24集][中文字幕].Joy.of.Life.S01.2024.2160p.WEB-DL.H265.AAC-LelveTV 6.93GB



◎标  题 庆余年 第一季
◎译  名 庆余年 / Joy of Life
◎年  代 2019
◎产  地 中国大陆
◎类  别 剧情 / 古装
◎语  言 汉语普通话
◎IMDb评分 8.1/10 (1505人评价)
◎IMDb链接 https://www.imdb.com/title/tt11273352/
◎豆瓣评分 7.9/10 (1033219人评价)
◎豆瓣链接 https://movie.douban.com/subject/25853071/
◎导  演 孙皓 Hao Sun
      温若寒 Ruohan Wen
      高寒 Han Gao
◎编  剧 王倦 Juan Wang
      猫腻 Mao Ni
◎演  员 张若昀 Ruoyun Zhang
      李沁 Qin Li
      陈道明 Daoming Chen
      吴刚 Gang Wu
      李小冉 Xiaoran Li
      袁泉 Quan Yuan
      于荣光 Rongguang Yu
      辛芷蕾 Zhilei Xin
      李纯 Chun Li
      宋轶 Yi Song
      刘桦 Hua Liu
      田雨 Yu Tian
      王阳 Wayne Wang
      于谨维 Jinwei Yu
      郭麒麟 Kevin Guo
      高曙光 Shuguang Gao
      李强 Qiang Li
      于洋 Yang Yu
      海一天 Yitian Hai
      肖战 Zhan Xiao
      佟梦实 Mengshi Tong
      刘端端 Duanduan Liu
      张昊唯 Haowei Zhang
      李俊贤 Junxian Li
      刘润南 Runnan Liu
      韩玖诺 Jiunuo Han
      刘美彤 Meitong Liu
      韩昊霖 Haolin Han
      崔志刚 Zhigang Cui
      贾景晖 Jinghui Jia
      代文雯 Wenwen Dai
      李子峰 Zifeng Li
      崔鹏 Peng Cui
      杜玉明 Yuming Du
      赵柯 Karina Zhao
      许还山 Huanshan Xu
      曹翠芬 Cuifen Cao
      李建义 Jianyi Li
      郑毓芝 Yuzhi Zheng
      梁爱琪 Aiqi Liang
      李洪权 Hongquan Li
      赫子铭 Lanpeng He
      罗二羊 Eryang Luo
      傅迦 Jia Fu
      赵振廷 Zhenting Zhao
      董可飞 Kefei Dong
      康杰 Jie Kang
      张恒瑞 Hengrui Zhang
      郭家诺 Jianuo Guo
      常铖 Cheng Chang
      于安 An Yu
      淮文 Shawn
      孙亦沐 Louis Sun
      王铮 Zheng Wang
      邓童天 Tongtian Deng
      乔于庭 Yuting Qiao
      林静 Jing Lin
      于小鸣 Xiaoming Yu
      姜洋 Yang Jiang
      东靖川 Jingchuan Dong
      阎鹤祥 Hexiang Yan
      刘琪奕 Qiyi Liu
      白澜 Lan Bai
      顾语涵 Yuhan Gu
      魏晚秋 Wanqiu Wei
      吴韬 Tao Wu
      巫蛊悠悠 Haojia Li
      赵岩涛 Yantao Zhao
      钱文青 Wenqing Qian
      吕志辉

◎简  介
    某大学文学史专业的学生张庆熟读古典名著,但他用现代观念剖析古代文学史的论文命题不被叶教授所认可。为了让叶教授成为自己的研究生导师,张庆决定通过写小说的方式,进一步阐述自己想要表达的观点。   在他的小说中,身世神秘的少年——范闲,自小跟随奶奶生活在海边小城澹州,随着一位老师的突然造访,他看似平静的生活开始直面重重的危机与考验。在神秘老师和一位蒙眼守护者的指点下,范闲熟识药性药理,修炼霸道真气并精进武艺,而后接连化解了诸多危局。因对身世之谜的好奇,范闲离开澹州,前赴京都。   在京都,范闲凭借过人的智谋与勇武成为年轻一代的佼佼者,他先以诗文冠绝京都,而后出使邻国,营救人质,整合谍报网,查处震动朝野的走私案……这个过程中,范闲饱尝人间冷暖并坚守对正义、良善的坚持,历经家族、江湖、庙堂的种种考验与锤炼,书写了光彩的人生传奇。

部分资源为软字幕,移动端推荐播放器:MxPlayer,nPlayer,infuse ,其他播放器请自行尝试。

部分资源为软字幕,电脑端推荐播放器:PotPlayer,完美解码,KMPLAYER,其他播放器请自行尝试。

下载端推荐纯BT下载软件:qBittorrent,Bitcomet,uTorrent ,其他下载软件请自行尝试。不支持吸血迅雷。

##### MediaInfo ######
General
Complete name : Joy.of.Life.S01E22.2024.2160p.WEB-DL.H265.AAC-LelveTV.mp4
Duration : 1 h 5 min
Overall bit rate mode : Variable
Overall bit rate : 5 642 kb/s

Video
ID : 1
Format : HEVC
Format/Info : High Efficiency Video Coding
Format profile : Main@L5@Main
Codec ID : hev1
Codec ID/Info : High Efficiency Video Coding
Duration : 1 h 5 min
Source duration : 1 h 5 min
Bit rate : 5 510 kb/s
Width : 3 840 pixels
Height : 2 160 pixels
Display aspect ratio : 16:9
Frame rate mode : Variable
Frame rate : 25.000 FPS
Minimum frame rate : 24.993 FPS
Maximum frame rate : 25.007 FPS
Color space : YUV
Chroma subsampling : 4:2:0
Bit depth : 8 bits
Bits/(Pixel*Frame) : 0.027
Stream size : 2.51 GiB (98%)
Source stream size : 2.51 GiB (98%)
Writing library : Tencent-V265-1.6.9.1-p1k184g16lh64f4ra1.
Color range : Limited
Color primaries : BT.709
Transfer characteristics : BT.709
Matrix coefficients : BT.709
Codec configuration box : hvcC

Audio
ID : 2
Format : AAC LC
Format/Info : Advanced Audio Codec Low Complexity
Codec ID : mp4a-40-2
Duration : 1 h 5 min
Bit rate mode : Variable
Bit rate : 125 kb/s
Maximum bit rate : 128 kb/s
Channel(s) : 2 channels
Channel layout : L R
Sampling rate : 48.0 kHz
Frame rate : 46.875 FPS (1024 SPF)
Compression mode : Lossy
Stream size : 58.4 MiB (2%)
Default : Yes
Alternate group : 1




1 个附件 售价 大小 下载 时间

Joy.of.Life.S01.2024.2160p.WEB-DL.H265.AAC-LelveTV[1LOU.ME].torrent 0 金币 20.00K 343 次 4天前

#1楼
发帖时间:2024-05-16 00:39:52   |   回复数:0
游客组