BILL36
隐世仙人♂

[2024] [英国] [其它] [WEB-4K] 偷情网站泄密事件:性、谎言与丑闻[全3集][简繁英字幕].2024.2160p.NF.WEB-DL.DDP5.1.Atmos.H.265-LelveTV 13.

-->

完整标题:偷情网站泄密事件:性、谎言与丑闻[全3集][简繁英字幕].2024.2160p.NF.WEB-DL.DDP5.1.Atmos.H.265-LelveTV 13.27GB



◎标  题 偷情网站泄密事件:性、谎言与丑闻
◎片  名 Ashley Madison: Sex, Lies & Scandal
◎年  代 2024
◎产  地 英国
◎类  别 纪录片
◎语  言 英语
◎IMDb评分 6.8/10 (65人评价)
◎IMDb链接 https://www.imdb.com/title/tt32307741/
◎豆瓣链接 https://movie.douban.com/subject/36879422/

◎简  介
    这是现代最令人震惊的私密互联网泄密事件,探索了当人们最阴暗的欲望、可耻的背叛和性秘密被暴露在全世界面前时发生的事情...

部分资源为软字幕,移动端推荐播放器:MxPlayer,nPlayer,infuse ,其他播放器请自行尝试。

部分资源为软字幕,电脑端推荐播放器:PotPlayer,完美解码,KMPLAYER,其他播放器请自行尝试。

下载端推荐纯BT下载软件:qBittorrent,Bitcomet,uTorrent ,其他下载软件请自行尝试。不支持吸血迅雷。

##### MediaInfo ######
General
Unique ID : 29972072727643932611076327793834150757 (0x168C6946C5C0673742C25D5C9B254B65)
Complete name : Ashley.Madison.Sex.Lies.&.Scandal.S01E01.2024.2160p.NF.WEB-DL.DDP5.1.Atmos.H.265-LelveTV.mkv
Duration : 53 min 11 s
Overall bit rate : 12.4 Mb/s

Video
ID : 1
Format : HEVC
Format/Info : High Efficiency Video Coding
Format profile : Main 10@L5@Main
Codec ID : V_MPEGH/ISO/HEVC
Duration : 53 min 11 s
Bit rate : 11.6 Mb/s
Width : 3 840 pixels
Height : 2 160 pixels
Display aspect ratio : 16:9
Frame rate mode : Constant
Frame rate : 23.976 (24000/1001) FPS
Color space : YUV
Chroma subsampling : 4:2:0
Bit depth : 10 bits
Bits/(Pixel*Frame) : 0.058
Stream size : 4.31 GiB (94%)
Default : Yes
Forced : No
Color range : Limited
Color primaries : BT.709
Transfer characteristics : BT.709
Matrix coefficients : BT.709

Audio
ID : 2
Format : E-AC-3 JOC
Format/Info : Enhanced AC-3 with Joint Object Coding
Commercial name : Dolby Digital Plus with Dolby Atmos
Codec ID : A_EAC3
Duration : 53 min 11 s
Bit rate mode : Constant
Bit rate : 768 kb/s
Channel(s) : 6 channels
Channel layout : L R C LFE Ls Rs
Sampling rate : 48.0 kHz
Frame rate : 31.250 FPS (1536 SPF)
Compression mode : Lossy
Stream size : 292 MiB (6%)
Title : English [Dolby Digital Plus with Dolby Atmos 5.1]
Language : English
Service kind : Complete Main
Default : Yes
Forced : No
Complexity index : 16
Number of dynamic objects : 15
Bed channel count : 1 channel
Bed channel configuration : LFE

Text #1
ID : 3
Format : UTF-8
Codec ID : S_TEXT/UTF8
Codec ID/Info : UTF-8 Plain Text
Duration : 51 min 13 s
Bit rate : 108 b/s
Frame rate : 0.298 FPS
Count of elements : 915
Stream size : 40.7 KiB (0%)
Title : English [SDH]
Language : English
Default : No
Forced : No

Text #2
ID : 4
Format : UTF-8
Codec ID : S_TEXT/UTF8
Codec ID/Info : UTF-8 Plain Text
Duration : 51 min 38 s
Bit rate : 84 b/s
Frame rate : 0.283 FPS
Count of elements : 878
Stream size : 32.0 KiB (0%)
Title : 中文(简体)
Language : Chinese
Default : Yes
Forced : No

Text #3
ID : 5
Format : UTF-8
Codec ID : S_TEXT/UTF8
Codec ID/Info : UTF-8 Plain Text
Duration : 51 min 38 s
Bit rate : 88 b/s
Frame rate : 0.310 FPS
Count of elements : 959
Stream size : 33.3 KiB (0%)
Title : 中文 (繁體)
Language : Chinese
Default : No
Forced : No

Text #4
ID : 6
Format : UTF-8
Codec ID : S_TEXT/UTF8
Codec ID/Info : UTF-8 Plain Text
Duration : 51 min 38 s
Bit rate : 165 b/s
Frame rate : 0.304 FPS
Count of elements : 943
Stream size : 62.5 KiB (0%)
Title : ???????
Language : Arabic
Default : No
Forced : No

Text #5
ID : 7
Format : UTF-8
Codec ID : S_TEXT/UTF8
Codec ID/Info : UTF-8 Plain Text
Duration : 51 min 10 s
Bit rate : 89 b/s
Frame rate : 0.204 FPS
Count of elements : 625
Stream size : 33.5 KiB (0%)
Title : ?e?tina
Language : Czech
Default : No
Forced : No

Text #6
ID : 8
Format : UTF-8
Codec ID : S_TEXT/UTF8
Codec ID/Info : UTF-8 Plain Text
Duration : 51 min 38 s
Bit rate : 86 b/s
Frame rate : 0.240 FPS
Count of elements : 745
Stream size : 32.8 KiB (0%)
Title : Dansk
Language : Danish
Default : No
Forced : No

Text #7
ID : 9
Format : UTF-8
Codec ID : S_TEXT/UTF8
Codec ID/Info : UTF-8 Plain Text
Duration : 51 min 38 s
Bit rate : 86 b/s
Frame rate : 0.273 FPS
Count of elements : 847
Stream size : 32.6 KiB (0%)
Title : Deutsch
Language : German
Default : No
Forced : No

Text #8
ID : 10
Format : UTF-8
Codec ID : S_TEXT/UTF8
Codec ID/Info : UTF-8 Plain Text
Duration : 51 min 10 s
Bit rate : 161 b/s
Frame rate : 0.280 FPS
Count of elements : 859
Stream size : 60.7 KiB (0%)
Title : Ελληνικ?
Language : Greek
Default : No
Forced : No

Text #9
ID : 11
Format : UTF-8
Codec ID : S_TEXT/UTF8
Codec ID/Info : UTF-8 Plain Text
Duration : 51 min 9 s
Bit rate : 94 b/s
Frame rate : 0.271 FPS
Count of elements : 833
Stream size : 35.3 KiB (0%)
Title : Espa?ol
Language : Spanish
Default : No
Forced : No

Text #10
ID : 12
Format : UTF-8
Codec ID : S_TEXT/UTF8
Codec ID/Info : UTF-8 Plain Text
Duration : 51 min 38 s
Bit rate : 88 b/s
Frame rate : 0.286 FPS
Count of elements : 886
Stream size : 33.5 KiB (0%)
Title : Espa?ol (Espa?a)
Language : Spanish
Default : No
Forced : No

Text #11
ID : 13
Format : UTF-8
Codec ID : S_TEXT/UTF8
Codec ID/Info : UTF-8 Plain Text
Duration : 51 min 38 s
Bit rate : 80 b/s
Frame rate : 0.208 FPS
Count of elements : 644
Stream size : 30.5 KiB (0%)
Title : Suomi
Language : Finnish
Default : No
Forced : No

Text #12
ID : 14
Format : UTF-8
Codec ID : S_TEXT/UTF8
Codec ID/Info : UTF-8 Plain Text
Duration : 51 min 38 s
Bit rate : 87 b/s
Frame rate : 0.277 FPS
Count of elements : 858
Stream size : 33.1 KiB (0%)
Title : Suomi (Israel)
Language : Finnish
Default : No
Forced : No

Text #13
ID : 15
Format : UTF-8
Codec ID : S_TEXT/UTF8
Codec ID/Info : UTF-8 Plain Text
Duration : 51 min 7 s
Bit rate : 103 b/s
Frame rate : 0.268 FPS
Count of elements : 822
Stream size : 38.7 KiB (0%)
Title : Fran?ais
Language : French
Default : No
Forced : No

Text #14
ID : 16
Format : UTF-8
Codec ID : S_TEXT/UTF8
Codec ID/Info : UTF-8 Plain Text
Duration : 51 min 38 s
Bit rate : 144 b/s
Frame rate : 0.288 FPS
Count of elements : 893
Stream size : 54.8 KiB (0%)
Title : ?????
Language : Hebrew
Default : No
Forced : No

Text #15
ID : 17
Format : UTF-8
Codec ID : S_TEXT/UTF8
Codec ID/Info : UTF-8 Plain Text
Duration : 51 min 38 s
Bit rate : 84 b/s
Frame rate : 0.282 FPS
Count of elements : 873
Stream size : 31.8 KiB (0%)
Title : Hrvatski
Language : Croatian
Default : No
Forced : No

Text #16
ID : 18
Format : UTF-8
Codec ID : S_TEXT/UTF8
Codec ID/Info : UTF-8 Plain Text
Duration : 51 min 38 s
Bit rate : 92 b/s
Frame rate : 0.266 FPS
Count of elements : 825
Stream size : 35.1 KiB (0%)
Title : Magyar
Language : Hungarian
Default : No
Forced : No

Text #17
ID : 19
Format : UTF-8
Codec ID : S_TEXT/UTF8
Codec ID/Info : UTF-8 Plain Text
Duration : 51 min 38 s
Bit rate : 92 b/s
Frame rate : 0.288 FPS
Count of elements : 892
Stream size : 35.0 KiB (0%)
Title : Bahasa Indonesia
Language : Indonesian
Default : No
Forced : No

Text #18
ID : 20
Format : UTF-8
Codec ID : S_TEXT/UTF8
Codec ID/Info : UTF-8 Plain Text
Duration : 51 min 8 s
Bit rate : 111 b/s
Frame rate : 0.267 FPS
Count of elements : 820
Stream size : 41.7 KiB (0%)
Title : Italiano
Language : Italian
Default : No
Forced : No

Text #19
ID : 21
Format : UTF-8
Codec ID : S_TEXT/UTF8
Codec ID/Info : UTF-8 Plain Text
Duration : 51 min 38 s
Bit rate : 124 b/s
Frame rate : 0.360 FPS
Count of elements : 1115
Stream size : 47.0 KiB (0%)
Title : 日本語
Language : Japanese
Default : No
Forced : No

Text #20
ID : 22
Format : UTF-8
Codec ID : S_TEXT/UTF8
Codec ID/Info : UTF-8 Plain Text
Duration : 51 min 38 s
Bit rate : 106 b/s
Frame rate : 0.286 FPS
Count of elements : 887
Stream size : 40.1 KiB (0%)
Title : ???
Language : Korean
Default : No
Forced : No

Text #21
ID : 23
Format : UTF-8
Codec ID : S_TEXT/UTF8
Codec ID/Info : UTF-8 Plain Text
Duration : 51 min 38 s
Bit rate : 95 b/s
Frame rate : 0.291 FPS
Count of elements : 903
Stream size : 36.1 KiB (0%)
Title : Bahasa Malaysia
Language : Malay
Default : No
Forced : No

Text #22
ID : 24
Format : UTF-8
Codec ID : S_TEXT/UTF8
Codec ID/Info : UTF-8 Plain Text
Duration : 51 min 38 s
Bit rate : 84 b/s
Frame rate : 0.239 FPS
Count of elements : 740
Stream size : 31.9 KiB (0%)
Title : Norsk Bokm?l
Language : Norwegian Bokmal
Default : No
Forced : No

Text #23
ID : 25
Format : UTF-8
Codec ID : S_TEXT/UTF8
Codec ID/Info : UTF-8 Plain Text
Duration : 51 min 38 s
Bit rate : 89 b/s
Frame rate : 0.232 FPS
Count of elements : 720
Stream size : 34.0 KiB (0%)
Title : Nederlands
Language : Dutch
Default : No
Forced : No

Text #24
ID : 26
Format : UTF-8
Codec ID : S_TEXT/UTF8
Codec ID/Info : UTF-8 Plain Text
Duration : 51 min 38 s
Bit rate : 82 b/s
Frame rate : 0.271 FPS
Count of elements : 841
Stream size : 31.3 KiB (0%)
Title : Polski
Language : Polish
Default : No
Forced : No

Text #25
ID : 27
Format : UTF-8
Codec ID : S_TEXT/UTF8
Codec ID/Info : UTF-8 Plain Text
Duration : 51 min 38 s
Bit rate : 88 b/s
Frame rate : 0.283 FPS
Count of elements : 876
Stream size : 33.6 KiB (0%)
Title : Português
Language : Portuguese
Default : No
Forced : No

Text #26
ID : 28
Format : UTF-8
Codec ID : S_TEXT/UTF8
Codec ID/Info : UTF-8 Plain Text
Duration : 51 min 41 s
Bit rate : 90 b/s
Frame rate : 0.284 FPS
Count of elements : 882
Stream size : 34.3 KiB (0%)
Title : Português (Brasil)
Language : Portuguese
Default : No
Forced : No

Text #27
ID : 29
Format : UTF-8
Codec ID : S_TEXT/UTF8
Codec ID/Info : UTF-8 Plain Text
Duration : 51 min 10 s
Bit rate : 93 b/s
Frame rate : 0.244 FPS
Count of elements : 749
Stream size : 35.0 KiB (0%)
Title : Roman?
Language : Romanian
Default : No
Forced : No

Text #28
ID : 30
Format : UTF-8
Codec ID : S_TEXT/UTF8
Codec ID/Info : UTF-8 Plain Text
Duration : 51 min 38 s
Bit rate : 150 b/s
Frame rate : 0.269 FPS
Count of elements : 834
Stream size : 56.8 KiB (0%)
Title : Русский
Language : Russian
Default : No
Forced : No

Text #29
ID : 31
Format : UTF-8
Codec ID : S_TEXT/UTF8
Codec ID/Info : UTF-8 Plain Text
Duration : 51 min 38 s
Bit rate : 79 b/s
Frame rate : 0.240 FPS
Count of elements : 744
Stream size : 30.2 KiB (0%)
Title : Svenska
Language : Swedish
Default : No
Forced : No

Text #30
ID : 32
Format : UTF-8
Codec ID : S_TEXT/UTF8
Codec ID/Info : UTF-8 Plain Text
Duration : 51 min 10 s
Bit rate : 222 b/s
Frame rate : 0.290 FPS
Count of elements : 889
Stream size : 83.6 KiB (0%)
Title : ???
Language : Thai
Default : No
Forced : No

Text #31
ID : 33
Format : UTF-8
Codec ID : S_TEXT/UTF8
Codec ID/Info : UTF-8 Plain Text
Duration : 51 min 38 s
Bit rate : 87 b/s
Frame rate : 0.253 FPS
Count of elements : 783
Stream size : 33.0 KiB (0%)
Title : Türk?e
Language : Turkish
Default : No
Forced : No

Text #32
ID : 34
Format : UTF-8
Codec ID : S_TEXT/UTF8
Codec ID/Info : UTF-8 Plain Text
Duration : 51 min 38 s
Bit rate : 142 b/s
Frame rate : 0.286 FPS
Count of elements : 886
Stream size : 53.8 KiB (0%)
Title : Укра?нська
Language : Ukrainian
Default : No
Forced : No

Text #33
ID : 35
Format : UTF-8
Codec ID : S_TEXT/UTF8
Codec ID/Info : UTF-8 Plain Text
Duration : 51 min 38 s
Bit rate : 122 b/s
Frame rate : 0.264 FPS
Count of elements : 817
Stream size : 46.5 KiB (0%)
Title : Ti?ng Vi?t
Language : Vietnamese
Default : No
Forced : No

Menu
00:00:00.000 : en:Part 01
00:51:19.000 : en:Credits


点击图片可查看大图

软字幕无法在截图上展现,HDR版本/杜比视界版本截图会出现颜色异常,请使用支持的设备播放!



1 个附件 售价 大小 下载 时间

2024.2160p.NF.WEB-DL.DDP5.1.Atmos.H.265-LelveTV[1LOU.ME].torrent 0 金币 35.96K 679 次 4天前

#1楼
发帖时间:2024-05-16 08:39:45   |   回复数:0
游客组