BILL36
隐世仙人♂

[2024] [日本] [动画] [WEB-1080P] 王牌酒保 神之酒杯[第07集][简繁英字幕].Bartender.Kami.no.Glass.S01.2024.1080p.CR.WEB-DL.x264.AAC

-->

完整标题:王牌酒保 神之酒杯[第07集][简繁英字幕].Bartender.Kami.no.Glass.S01.2024.1080p.CR.WEB-DL.x264.AAC-ZeroTV 1.35GB



◎标  题 王牌酒保 神之酒杯
◎译  名 调酒师 神之杯
◎片  名 バーテンダー 神のグラス
◎年  代 2024
◎产  地 日本
◎类  别 动画
◎语  言 日语
◎IMDb评分 7.7/10 (48人评价)
◎IMDb链接 https://www.imdb.com/title/tt29233201/
◎豆瓣链接 https://movie.douban.com/subject/36134094/
◎导  演 仓谷凉一 Kuraya Ryouichi
◎编  剧 国泽真理子 Mariko Kunisawa
      城安良嬉 Araki Jô
      长友健筛 Kenji Nagatomo
◎演  员 寺岛拓笃 Takuma Terashima
      南条爱乃 Yoshino Nanjo
      白石晴香 Shiraishi Haruka
      松井惠理子 Eriko Matsui
      白石凉子 Ryoko Shiraishi
      古川慎 Makoto Furukawa

◎简  介
    『王牌酒保』完全新作动画制作发表

部分资源为软字幕,移动端推荐播放器:MxPlayer,nPlayer,infuse ,其他播放器请自行尝试。

部分资源为软字幕,电脑端推荐播放器:PotPlayer,完美解码,KMPLAYER,其他播放器请自行尝试。

下载端推荐纯BT下载软件:qBittorrent,Bitcomet,uTorrent ,其他下载软件请自行尝试。不支持吸血迅雷。

##### MediaInfo ######
General
Unique ID : 286268267245364541134215772333334566466 (0xD75D4346F6B27832A343B2D00B3B9642)
Complete name : Bartender.Kami.no.Glass.S01E07.2024.1080p.CR.WEB-DL.x264.AAC-ZeroTV.mkv
Duration : 23 min 50 s
Overall bit rate : 8 118 kb/s

Video
ID : 1
Format : AVC
Format/Info : Advanced Video Codec
Format profile : High@L4
Format settings : CABAC / 4 Ref Frames
Format settings, CABAC : Yes
Format settings, Reference frames : 4 frames
Codec ID : V_MPEG4/ISO/AVC
Duration : 23 min 50 s
Bit rate : 8 000 kb/s
Width : 1 920 pixels
Height : 1 080 pixels
Display aspect ratio : 16:9
Frame rate mode : Constant
Frame rate : 23.976 (24000/1001) FPS
Color space : YUV
Chroma subsampling : 4:2:0
Bit depth : 8 bits
Scan type : Progressive
Bits/(Pixel*Frame) : 0.161
Stream size : 1.33 GiB (98%)
Title : Japanese
Writing library : x264 core 164
Encoding settings : cabac=1 / ref=4 / deblock=1:1:1 / analyse=0x3:0x113 / me=hex / subme=8 / psy=1 / psy_rd=0.40:0.00 / mixed_ref=1 / me_range=16 / chroma_me=1 / trellis=2 / 8x8dct=1 / cqm=0 / deadzone=21,11 / fast_pskip=1 / chroma_qp_offset=-2 / threads=12 / lookahead_threads=2 / sliced_threads=0 / nr=0 / decimate=1 / interlaced=0 / bluray_compat=0 / constrained_intra=0 / bframes=0 / weightp=2 / keyint=96 / keyint_min=48 / scenecut=40 / intra_refresh=0 / rc_lookahead=48 / rc=2pass / mbtree=1 / bitrate=8000 / ratetol=1.0 / qcomp=0.60 / qpmin=0 / qpmax=69 / qpstep=4 / cplxblur=20.0 / qblur=0.5 / vbv_maxrate=12000 / vbv_bufsize=18000 / nal_hrd=none / filler=0 / ip_ratio=1.40 / aq=1:0.60
Language : Japanese
Default : Yes
Forced : No
Color range : Limited
Color primaries : BT.709
Transfer characteristics : BT.709
Matrix coefficients : BT.709

Audio
ID : 2
Format : AAC LC
Format/Info : Advanced Audio Codec Low Complexity
Codec ID : A_AAC-2
Duration : 23 min 50 s
Bit rate : 128 kb/s
Channel(s) : 2 channels
Channel layout : L R
Sampling rate : 44.1 kHz
Frame rate : 43.066 FPS (1024 SPF)
Compression mode : Lossy
Stream size : 21.8 MiB (2%)
Title : Japanese
Language : Japanese
Default : Yes
Forced : No

Text #1
ID : 3
Format : UTF-8
Codec ID : S_TEXT/UTF8
Codec ID/Info : UTF-8 Plain Text
Duration : 23 min 47 s
Bit rate : 54 b/s
Frame rate : 0.252 FPS
Count of elements : 360
Stream size : 9.50 KiB (0%)
Title : Chinese Simplified
Language : Chinese
Default : Yes
Forced : No

Text #2
ID : 4
Format : UTF-8
Codec ID : S_TEXT/UTF8
Codec ID/Info : UTF-8 Plain Text
Duration : 23 min 47 s
Bit rate : 54 b/s
Frame rate : 0.252 FPS
Count of elements : 360
Stream size : 9.50 KiB (0%)
Title : Chinese Traditional
Language : Chinese
Default : No
Forced : No

Text #3
ID : 5
Format : ASS
Codec ID : S_TEXT/ASS
Codec ID/Info : Advanced Sub Station Alpha
Duration : 23 min 48 s
Bit rate : 133 b/s
Frame rate : 0.218 FPS
Count of elements : 312
Compression mode : Lossless
Stream size : 23.3 KiB (0%)
Language : English
Default : No
Forced : No

Text #4
ID : 6
Format : ASS
Codec ID : S_TEXT/ASS
Codec ID/Info : Advanced Sub Station Alpha
Duration : 23 min 48 s
Bit rate : 121 b/s
Frame rate : 0.218 FPS
Count of elements : 312
Compression mode : Lossless
Stream size : 21.2 KiB (0%)
Language : German
Default : No
Forced : No

Text #5
ID : 7
Format : ASS
Codec ID : S_TEXT/ASS
Codec ID/Info : Advanced Sub Station Alpha
Duration : 23 min 48 s
Bit rate : 127 b/s
Frame rate : 0.211 FPS
Count of elements : 301
Compression mode : Lossless
Stream size : 22.2 KiB (0%)
Language : Spanish
Default : No
Forced : No

Text #6
ID : 8
Format : ASS
Codec ID : S_TEXT/ASS
Codec ID/Info : Advanced Sub Station Alpha
Duration : 23 min 48 s
Bit rate : 127 b/s
Frame rate : 0.211 FPS
Count of elements : 301
Compression mode : Lossless
Stream size : 22.2 KiB (0%)
Language : Spanish
Default : No
Forced : No

Text #7
ID : 9
Format : ASS
Codec ID : S_TEXT/ASS
Codec ID/Info : Advanced Sub Station Alpha
Duration : 23 min 48 s
Bit rate : 130 b/s
Frame rate : 0.220 FPS
Count of elements : 314
Compression mode : Lossless
Stream size : 22.8 KiB (0%)
Language : French
Default : No
Forced : No

Text #8
ID : 10
Format : ASS
Codec ID : S_TEXT/ASS
Codec ID/Info : Advanced Sub Station Alpha
Duration : 23 min 48 s
Bit rate : 136 b/s
Frame rate : 0.252 FPS
Count of elements : 360
Compression mode : Lossless
Stream size : 23.8 KiB (0%)
Language : Italian
Default : No
Forced : No

Text #9
ID : 11
Format : ASS
Codec ID : S_TEXT/ASS
Codec ID/Info : Advanced Sub Station Alpha
Duration : 23 min 48 s
Bit rate : 133 b/s
Frame rate : 0.217 FPS
Count of elements : 310
Compression mode : Lossless
Stream size : 23.2 KiB (0%)
Language : Portuguese
Default : No
Forced : No

Text #10
ID : 12
Format : ASS
Codec ID : S_TEXT/ASS
Codec ID/Info : Advanced Sub Station Alpha
Duration : 23 min 48 s
Bit rate : 178 b/s
Frame rate : 0.249 FPS
Count of elements : 355
Compression mode : Lossless
Stream size : 31.2 KiB (0%)
Language : Russian
Default : No
Forced : No

Text #11
ID : 13
Format : ASS
Codec ID : S_TEXT/ASS
Codec ID/Info : Advanced Sub Station Alpha
Duration : 23 min 48 s
Bit rate : 164 b/s
Frame rate : 0.218 FPS
Count of elements : 312
Compression mode : Lossless
Stream size : 28.6 KiB (0%)
Language : Arabic
Default : No
Forced : No


点击图片可查看大图

软字幕无法在截图上展现,HDR版本/杜比视界版本截图会出现颜色异常,请使用支持的设备播放!



1 个附件 售价 大小 下载 时间

Bartender.Kami.no.Glass.S01.2024.1080p.CR.WEB-DL.x264.AAC-ZeroTV[1LOU.ME].torrent 0 金币 5.90K 98 次 4天前

#1楼
发帖时间:2024-05-16 08:40:43   |   回复数:0
游客组