BILL36
隐世仙人♂

[2013] [日本] [动画] [WEB-1080P] 约会大作战[第06集][中文字幕].Date.A.Live.S05.2024.1080p.WEB-DL.H264.AAC-ZeroTV 1.26GB

-->

完整标题:约会大作战[第06集][中文字幕].Date.A.Live.S05.2024.1080p.WEB-DL.H264.AAC-ZeroTV 1.26GB



◎标  题 约会大作战
◎译  名 Date A Live
◎片  名 デート・ア・ライブ
◎年  代 2013
◎产  地 日本
◎类  别 动画
◎语  言 日语
◎上映日期 2024年4月11日
◎IMDb评分 6.9/10 (人评价)
◎IMDb链接 https://www.imdb.com/title/tt2575684/
◎豆瓣评分 7.3/10 (人评价)
◎豆瓣链接 https://movie.douban.com/subject/10771190/
◎片  长 分钟
◎导  演 元永庆太郎
      木村真一郎
      高林久弥
      安藤贵史
      铃木薰
◎编  剧 白根秀树
      田中仁
      铃木贵昭
      橘公司
◎演  员 岛崎信长
      井上麻里奈
      竹达彩奈
      富㭴美铃
      野水伊织
      真田麻美
      佐土原香织
      远藤绫

部分资源为软字幕,移动端推荐播放器:MxPlayer,nPlayer,infuse ,其他播放器请自行尝试。

部分资源为软字幕,电脑端推荐播放器:PotPlayer,完美解码,KMPLAYER,其他播放器请自行尝试。

下载端推荐纯BT下载软件:qBittorrent,Bitcomet,uTorrent ,其他下载软件请自行尝试。不支持吸血迅雷。

##### MediaInfo ######
General
Unique ID : 249791979403417270806410570599566109438 (0xBBEC2F6FD377F8748624AC5800F36AFE)
Complete name : Date.A.Live.S05E06.2024.1080p.WEB-DL.H264.AAC-ZeroTV.mkv
Duration : 23 min 40 s
Overall bit rate : 7 613 kb/s

Video
ID : 1
Format : AVC
Format/Info : Advanced Video Codec
Format profile : [email protected]
Format settings : CABAC / 1 Ref Frames
Format settings, CABAC : Yes
Format settings, Reference frames : 1 frame
Format settings, GOP : M=1, N=60
Codec ID : V_MPEG4/ISO/AVC
Duration : 23 min 40 s
Bit rate mode : Constant
Bit rate : 7 485 kb/s
Nominal bit rate : 8 000 kb/s
Width : 1 920 pixels
Height : 1 080 pixels
Display aspect ratio : 16:9
Frame rate mode : Constant
Frame rate : 29.970 (30000/1001) FPS
Color space : YUV
Chroma subsampling : 4:2:0
Bit depth : 8 bits
Scan type : Progressive
Bits/(Pixel*Frame) : 0.120
Stream size : 1.24 GiB (98%)
Language : English
Default : Yes
Forced : No

Audio
ID : 2
Format : AAC LC
Format/Info : Advanced Audio Codec Low Complexity
Codec ID : A_AAC-2
Duration : 23 min 39 s
Bit rate : 125 kb/s
Channel(s) : 2 channels
Channel layout : L R
Sampling rate : 48.0 kHz
Frame rate : 46.875 FPS (1024 SPF)
Compression mode : Lossy
Stream size : 21.2 MiB (2%)
Title : 日语
Language : Japanese
Default : Yes
Forced : No


点击图片可查看大图

软字幕无法在截图上展现,HDR版本/杜比视界版本截图会出现颜色异常,请使用支持的设备播放!



1 个附件 售价 大小 下载 时间

Date.A.Live.S05.2024.1080p.WEB-DL.H264.AAC-ZeroTV[1LOU.ME].torrent 0 金币 5.63K 63 次 4天前

#1楼
发帖时间:2024-05-16 08:43:35   |   回复数:0
游客组