BILL36
隐世仙人♂

[2013] [日本] [动画] [WEB-4K] 约会大作战[第06集][简繁英字幕].Date.A.Live.S05.2024.2160p.B-Global.WEB-DL.x264.AAC-ZeroTV 1.

-->

完整标题:约会大作战[第06集][简繁英字幕].Date.A.Live.S05.2024.2160p.B-Global.WEB-DL.x264.AAC-ZeroTV 1.65GB



◎标  题 约会大作战
◎译  名 Date A Live
◎片  名 デート・ア・ライブ
◎年  代 2013
◎产  地 日本
◎类  别 动画
◎语  言 日语
◎上映日期 2024年4月11日
◎IMDb评分 6.9/10 (人评价)
◎IMDb链接 https://www.imdb.com/title/tt2575684/
◎豆瓣评分 7.3/10 (人评价)
◎豆瓣链接 https://movie.douban.com/subject/10771190/
◎片  长 分钟
◎导  演 元永庆太郎
      木村真一郎
      高林久弥
      安藤贵史
      铃木薰
◎编  剧 白根秀树
      田中仁
      铃木贵昭
      橘公司
◎演  员 岛崎信长
      井上麻里奈
      竹达彩奈
      富㭴美铃
      野水伊织
      真田麻美
      佐土原香织
      远藤绫

部分资源为软字幕,移动端推荐播放器:MxPlayer,nPlayer,infuse ,其他播放器请自行尝试。

部分资源为软字幕,电脑端推荐播放器:PotPlayer,完美解码,KMPLAYER,其他播放器请自行尝试。

下载端推荐纯BT下载软件:qBittorrent,Bitcomet,uTorrent ,其他下载软件请自行尝试。不支持吸血迅雷。

##### MediaInfo ######
General
Unique ID : 159010965853812820751888020272590967326 (0x77A065E76A8574D1EC82F293BFFD521E)
Complete name : Date.A.Live.S05E06.2024.2160p.WEB-DL.x264.AAC-ZeroTV.mkv
Duration : 23 min 40 s
Overall bit rate : 9 958 kb/s

Video
ID : 1
Format : AVC
Format/Info : Advanced Video Codec
Format profile : [email protected]
Format settings : CABAC / 5 Ref Frames
Format settings, CABAC : Yes
Format settings, Reference frames : 5 frames
Codec ID : V_MPEG4/ISO/AVC
Duration : 23 min 40 s
Bit rate : 9 764 kb/s
Width : 3 840 pixels
Height : 2 160 pixels
Display aspect ratio : 16:9
Frame rate mode : Constant
Frame rate : 23.976 (23976/1000) FPS
Color space : YUV
Chroma subsampling : 4:2:0
Bit depth : 8 bits
Scan type : Progressive
Bits/(Pixel*Frame) : 0.049
Stream size : 1.61 GiB (98%)
Title : Japanese
Language : Japanese
Default : Yes
Forced : No
Color range : Limited
Color primaries : BT.709
Transfer characteristics : BT.709
Matrix coefficients : BT.709

Audio
ID : 2
Format : AAC LC
Format/Info : Advanced Audio Codec Low Complexity
Codec ID : A_AAC-2
Duration : 23 min 40 s
Bit rate : 197 kb/s
Channel(s) : 2 channels
Channel layout : L R
Sampling rate : 48.0 kHz
Frame rate : 46.875 FPS (1024 SPF)
Compression mode : Lossy
Stream size : 33.3 MiB (2%)
Title : Japanese
Language : Japanese
Default : Yes
Forced : No

Text #1
ID : 3
Format : UTF-8
Codec ID : S_TEXT/UTF8
Codec ID/Info : UTF-8 Plain Text
Duration : 23 min 31 s
Bit rate : 44 b/s
Frame rate : 0.207 FPS
Count of elements : 292
Stream size : 7.66 KiB (0%)
Title : Chinese Simplified
Language : Chinese
Default : Yes
Forced : No

Text #2
ID : 4
Format : UTF-8
Codec ID : S_TEXT/UTF8
Codec ID/Info : UTF-8 Plain Text
Duration : 23 min 31 s
Bit rate : 44 b/s
Frame rate : 0.207 FPS
Count of elements : 292
Stream size : 7.66 KiB (0%)
Title : Chinese Traditional
Language : Chinese
Default : No
Forced : No

Text #3
ID : 5
Format : ASS
Codec ID : S_TEXT/ASS
Codec ID/Info : Advanced Sub Station Alpha
Duration : 23 min 32 s
Bit rate : 93 b/s
Frame rate : 0.219 FPS
Count of elements : 309
Compression mode : Lossless
Stream size : 16.2 KiB (0%)
Title : English
Language : English
Default : No
Forced : No

Text #4
ID : 6
Format : UTF-8
Codec ID : S_TEXT/UTF8
Codec ID/Info : UTF-8 Plain Text
Duration : 23 min 33 s
Bit rate : 124 b/s
Frame rate : 0.202 FPS
Count of elements : 286
Stream size : 21.5 KiB (0%)
Title : ???????
Language : Thai
Default : No
Forced : No

Text #5
ID : 7
Format : UTF-8
Codec ID : S_TEXT/UTF8
Codec ID/Info : UTF-8 Plain Text
Duration : 23 min 32 s
Bit rate : 46 b/s
Frame rate : 0.159 FPS
Count of elements : 224
Stream size : 8.05 KiB (0%)
Title : Bahasa Indonesia
Language : Indonesian
Default : No
Forced : No


点击图片可查看大图

软字幕无法在截图上展现,HDR版本/杜比视界版本截图会出现颜色异常,请使用支持的设备播放!



1 个附件 售价 大小 下载 时间

Date.A.Live.S05.2024.2160p.B-Global.WEB-DL.x264.AAC-ZeroTV[1LOU.ME].torrent 0 金币 6.60K 105 次 4天前

#1楼
发帖时间:2024-05-16 08:44:10   |   回复数:0
游客组