BILL36
隐世仙人♂

[2024] [其它] [剧情] [WEB-4K] 情迷希拉曼地:璀璨名姝[全8集][简繁英字幕].2024.2160p.NF.WEB-DL.DDP5.1.Atmos.H.265-LelveTV 39.97GB

-->

完整标题:情迷希拉曼地:璀璨名姝[全8集][简繁英字幕].2024.2160p.NF.WEB-DL.DDP5.1.Atmos.H.265-LelveTV 39.97GB



◎标  题 情迷希拉曼地:璀璨名姝
◎片  名 Heeramandi: The Diamond Bazaar
◎年  代 2024
◎产  地 印度
◎类  别 剧情 / 爱情 / 历史
◎语  言 印地语
◎IMDb评分 6.5/10 (23495人评价)
◎IMDb链接 https://www.imdb.com/title/tt15204292/
◎豆瓣链接 https://movie.douban.com/subject/36193161/
◎导  演 桑杰·里拉·彭萨里 Sanjay Leela Bhansali
      米塔克萨拉·库马尔 Mitakshara Kumar
      维布·普里 Vibhu Puri
◎编  剧 米塔克萨拉·库马尔 Mitakshara Kumar
◎演  员 阿娣提·拉奥·希达里 Aditi Rao Hydari
      索娜什·辛哈 Sonakshi Sinha
      玛尼沙·柯伊拉拉 Manisha Koirala
      法尔丁·汗 Fardeen Khan
      帕雷什·帕胡加 Paresh Pahuja

◎简  介
    Life story of three generations of courtesans in Heera mandi, a dazzling district, during pre-independent India.

部分资源为软字幕,移动端推荐播放器:MxPlayer,nPlayer,infuse ,其他播放器请自行尝试。

部分资源为软字幕,电脑端推荐播放器:PotPlayer,完美解码,KMPLAYER,其他播放器请自行尝试。

下载端推荐纯BT下载软件:qBittorrent,Bitcomet,uTorrent ,其他下载软件请自行尝试。不支持吸血迅雷。

##### MediaInfo ######
General
Unique ID : 154737942220527712846016342197959851112 (0x74697192C1031DEB8E0F701220B6FC68)
Complete name : Heeramandi.The.Diamond.Bazaar.S01E01.2024.2160p.NF.WEB-DL.DDP5.1.Atmos.H.265-LelveTV.mkv
Duration : 1 h 7 min
Overall bit rate : 13.2 Mb/s

Video
ID : 1
Format : HEVC
Format/Info : High Efficiency Video Coding
Format profile : Main 10@L5@Main
Codec ID : V_MPEGH/ISO/HEVC
Duration : 1 h 7 min
Bit rate : 11.8 Mb/s
Width : 3 840 pixels
Height : 2 160 pixels
Display aspect ratio : 16:9
Frame rate mode : Constant
Frame rate : 24.000 FPS
Color space : YUV
Chroma subsampling : 4:2:0
Bit depth : 10 bits
Bits/(Pixel*Frame) : 0.059
Stream size : 5.59 GiB (89%)
Default : Yes
Forced : No
Color range : Limited
Color primaries : BT.709
Transfer characteristics : BT.709
Matrix coefficients : BT.709

Audio #1
ID : 2
Format : E-AC-3 JOC
Format/Info : Enhanced AC-3 with Joint Object Coding
Commercial name : Dolby Digital Plus with Dolby Atmos
Codec ID : A_EAC3
Duration : 1 h 7 min
Bit rate mode : Constant
Bit rate : 768 kb/s
Channel(s) : 6 channels
Channel layout : L R C LFE Ls Rs
Sampling rate : 48.0 kHz
Frame rate : 31.250 FPS (1536 SPF)
Compression mode : Lossy
Stream size : 373 MiB (6%)
Title : ?????? [Dolby Digital Plus with Dolby Atmos 5.1]
Language : Hindi
Service kind : Complete Main
Default : Yes
Forced : No
Complexity index : 16
Number of dynamic objects : 15
Bed channel count : 1 channel
Bed channel configuration : LFE

Audio #2
ID : 3
Format : E-AC-3
Format/Info : Enhanced AC-3
Commercial name : Dolby Digital Plus
Codec ID : A_EAC3
Duration : 1 h 7 min
Bit rate mode : Constant
Bit rate : 640 kb/s
Channel(s) : 6 channels
Channel layout : L R C LFE Ls Rs
Sampling rate : 48.0 kHz
Frame rate : 31.250 FPS (1536 SPF)
Compression mode : Lossy
Stream size : 311 MiB (5%)
Title : English (India) [Dolby Digital Plus 5.1]
Language : English
Service kind : Complete Main
Default : No
Forced : No

Text #1
ID : 4
Format : UTF-8
Codec ID : S_TEXT/UTF8
Codec ID/Info : UTF-8 Plain Text
Duration : 58 min 21 s
Bit rate : 172 b/s
Frame rate : 0.252 FPS
Count of elements : 882
Stream size : 74.0 KiB (0%)
Title : ?????? [SDH]
Language : Hindi
Default : No
Forced : No

Text #2
ID : 5
Format : UTF-8
Codec ID : S_TEXT/UTF8
Codec ID/Info : UTF-8 Plain Text
Duration : 1 h 5 min
Bit rate : 49 b/s
Frame rate : 0.216 FPS
Count of elements : 852
Stream size : 24.1 KiB (0%)
Title : 中文(简体)
Language : Chinese
Default : Yes
Forced : No

Text #3
ID : 6
Format : UTF-8
Codec ID : S_TEXT/UTF8
Codec ID/Info : UTF-8 Plain Text
Duration : 1 h 5 min
Bit rate : 50 b/s
Frame rate : 0.216 FPS
Count of elements : 852
Stream size : 24.5 KiB (0%)
Title : 中文 (繁體)
Language : Chinese
Default : No
Forced : No

Text #4
ID : 7
Format : UTF-8
Codec ID : S_TEXT/UTF8
Codec ID/Info : UTF-8 Plain Text
Duration : 57 min 34 s
Bit rate : 71 b/s
Frame rate : 0.261 FPS
Count of elements : 902
Stream size : 30.1 KiB (0%)
Title : English (India)
Language : English
Default : No
Forced : No

Menu
00:00:00.000 : en:Part 01
01:00:08.000 : en:Credits


点击图片可查看大图

软字幕无法在截图上展现,HDR版本/杜比视界版本截图会出现颜色异常,请使用支持的设备播放!



1 个附件 售价 大小 下载 时间

2024.2160p.NF.WEB-DL.DDP5.1.Atmos.H.265-LelveTV[1LOU.ME].torrent 0 金币 103.26K 140 次 4天前

#1楼
发帖时间:2024-05-16 08:46:49   |   回复数:0
游客组