BILL36
隐世仙人♂

[2024] [其它] [喜剧] [WEB-4K] 真爱下一位[全8集][简繁英字幕].Thank.You.Next.S01.2024.2160p.NF.WEB-DL.DDP5.1.H.265-LelveTV 3

-->

完整标题:真爱下一位[全8集][简繁英字幕].Thank.You.Next.S01.2024.2160p.NF.WEB-DL.DDP5.1.H.265-LelveTV 31.02GB



◎标  题 真爱下一位
◎译  名 谢谢你,下一个 / Thank You / Next
◎片  名 Kimler Geldi Kimler Geçti
◎年  代 2024
◎产  地 土耳其
◎类  别 喜剧 / 爱情
◎语  言 土耳其语
◎IMDb评分 5.8/10 (2144人评价)
◎IMDb链接 https://www.imdb.com/title/tt28267514/
◎豆瓣链接 https://movie.douban.com/subject/36860199/
◎演  员 塞雷奈·萨里卡亚 Serenay Sarikaya
      梅廷·阿克杜尔格 Metin Akdülger
      博兰·库祖姆 Boran Kuzum
      巴德·伊西尔 Bade Iscil
      泽伊内普·图格斯·巴亚特 Zeynep Tugçe Bayat
      梅里奇·阿拉尔 Meric Aral
      古尔坎·阿尔斯兰 Gulcan Arslan
      Hakan Kurtas
      里法特·桑贾尔 Ahmet Rifat Sungar
      拉希·锡兰 Laçin Ceylan
      埃格·艾丹 Ege Aydan
      卡米尔·古勒 Kamil Güler
      埃斯拉·鲁桑 Esra Rusan
      Efe Tuncer

◎简  介
    Upon recovering from the betrayal of her first love through the help of her friends and a handsome chef; a successful lawyer, Leyla Taylan, takes over the divorce case of the famous third wife Tuba Tepelioglu, also known as the case of the year. Facing her is Cem Murathan, a serial relationship killer, who got divorced from three different women in 15 years. Leyla will defend her client against this narcissistic man in the most passionate way. However this passion will blow up the whole situation.

部分资源为软字幕,移动端推荐播放器:MxPlayer,nPlayer,infuse ,其他播放器请自行尝试。

部分资源为软字幕,电脑端推荐播放器:PotPlayer,完美解码,KMPLAYER,其他播放器请自行尝试。

下载端推荐纯BT下载软件:qBittorrent,Bitcomet,uTorrent ,其他下载软件请自行尝试。不支持吸血迅雷。

##### MediaInfo ######
General
Unique ID : 80010071444113451177233317705596528156 (0x3C3161162DE145A99B6C7CE7B2E7E61C)
Complete name : Thank.You.Next.S01E01.2024.2160p.NF.WEB-DL.DDP5.1.H.265-LelveTV.mkv
Duration : 44 min 10 s
Overall bit rate : 12.7 Mb/s

Video
ID : 1
Format : HEVC
Format/Info : High Efficiency Video Coding
Format profile : Main 10@L5@Main
Codec ID : V_MPEGH/ISO/HEVC
Duration : 44 min 10 s
Bit rate : 11.4 Mb/s
Width : 3 840 pixels
Height : 2 160 pixels
Display aspect ratio : 16:9
Frame rate mode : Constant
Frame rate : 24.000 FPS
Color space : YUV
Chroma subsampling : 4:2:0
Bit depth : 10 bits
Bits/(Pixel*Frame) : 0.057
Stream size : 3.52 GiB (90%)
Default : Yes
Forced : No
Color range : Limited
Color primaries : BT.709
Transfer characteristics : BT.709
Matrix coefficients : BT.709

Audio #1
ID : 2
Format : E-AC-3
Format/Info : Enhanced AC-3
Commercial name : Dolby Digital Plus
Codec ID : A_EAC3
Duration : 44 min 10 s
Bit rate mode : Constant
Bit rate : 640 kb/s
Channel(s) : 6 channels
Channel layout : L R C LFE Ls Rs
Sampling rate : 48.0 kHz
Frame rate : 31.250 FPS (1536 SPF)
Compression mode : Lossy
Stream size : 202 MiB (5%)
Title : Türk?e [Dolby Digital Plus 5.1]
Language : Turkish
Service kind : Complete Main
Default : Yes
Forced : No

Audio #2
ID : 3
Format : E-AC-3
Format/Info : Enhanced AC-3
Commercial name : Dolby Digital Plus
Codec ID : A_EAC3
Duration : 44 min 10 s
Bit rate mode : Constant
Bit rate : 640 kb/s
Channel(s) : 6 channels
Channel layout : L R C LFE Ls Rs
Sampling rate : 48.0 kHz
Frame rate : 31.250 FPS (1536 SPF)
Compression mode : Lossy
Stream size : 202 MiB (5%)
Title : English [Dolby Digital Plus 5.1]
Language : English
Service kind : Complete Main
Default : No
Forced : No

Text #1
ID : 4
Format : UTF-8
Codec ID : S_TEXT/UTF8
Codec ID/Info : UTF-8 Plain Text
Duration : 39 min 4 s
Bit rate : 81 b/s
Frame rate : 0.256 FPS
Count of elements : 600
Stream size : 23.5 KiB (0%)
Title : Türk?e [SDH]
Language : Turkish
Default : No
Forced : No

Text #2
ID : 5
Format : UTF-8
Codec ID : S_TEXT/UTF8
Codec ID/Info : UTF-8 Plain Text
Duration : 39 min 44 s
Bit rate : 50 b/s
Frame rate : 0.213 FPS
Count of elements : 507
Stream size : 14.7 KiB (0%)
Title : 中文(简体)
Language : Chinese
Default : Yes
Forced : No

Text #3
ID : 6
Format : UTF-8
Codec ID : S_TEXT/UTF8
Codec ID/Info : UTF-8 Plain Text
Duration : 39 min 44 s
Bit rate : 50 b/s
Frame rate : 0.208 FPS
Count of elements : 496
Stream size : 14.8 KiB (0%)
Title : 中文 (繁體)
Language : Chinese
Default : No
Forced : No

Text #4
ID : 7
Format : UTF-8
Codec ID : S_TEXT/UTF8
Codec ID/Info : UTF-8 Plain Text
Duration : 39 min 44 s
Bit rate : 91 b/s
Frame rate : 0.203 FPS
Count of elements : 485
Stream size : 26.7 KiB (0%)
Title : ???????
Language : Arabic
Default : No
Forced : No

Text #5
ID : 8
Format : UTF-8
Codec ID : S_TEXT/UTF8
Codec ID/Info : UTF-8 Plain Text
Duration : 35 min 42 s
Bit rate : 59 b/s
Frame rate : 0.185 FPS
Count of elements : 397
Stream size : 15.5 KiB (0%)
Title : ?e?tina
Language : Czech
Default : No
Forced : No

Text #6
ID : 9
Format : UTF-8
Codec ID : S_TEXT/UTF8
Codec ID/Info : UTF-8 Plain Text
Duration : 39 min 44 s
Bit rate : 44 b/s
Frame rate : 0.198 FPS
Count of elements : 472
Stream size : 12.9 KiB (0%)
Title : Dansk
Language : Danish
Default : No
Forced : No

Text #7
ID : 10
Format : UTF-8
Codec ID : S_TEXT/UTF8
Codec ID/Info : UTF-8 Plain Text
Duration : 39 min 44 s
Bit rate : 49 b/s
Frame rate : 0.195 FPS
Count of elements : 465
Stream size : 14.4 KiB (0%)
Title : Deutsch
Language : German
Default : No
Forced : No

Text #8
ID : 11
Format : UTF-8
Codec ID : S_TEXT/UTF8
Codec ID/Info : UTF-8 Plain Text
Duration : 39 min 44 s
Bit rate : 86 b/s
Frame rate : 0.194 FPS
Count of elements : 463
Stream size : 25.1 KiB (0%)
Title : Ελληνικ?
Language : Greek
Default : No
Forced : No

Text #9
ID : 12
Format : UTF-8
Codec ID : S_TEXT/UTF8
Codec ID/Info : UTF-8 Plain Text
Duration : 35 min 44 s
Bit rate : 65 b/s
Frame rate : 0.239 FPS
Count of elements : 512
Stream size : 17.1 KiB (0%)
Title : English
Language : English
Default : No
Forced : No

Text #10
ID : 13
Format : UTF-8
Codec ID : S_TEXT/UTF8
Codec ID/Info : UTF-8 Plain Text
Duration : 39 min 44 s
Bit rate : 47 b/s
Frame rate : 0.196 FPS
Count of elements : 468
Stream size : 13.9 KiB (0%)
Title : Espa?ol
Language : Spanish
Default : No
Forced : No

Text #11
ID : 14
Format : UTF-8
Codec ID : S_TEXT/UTF8
Codec ID/Info : UTF-8 Plain Text
Duration : 39 min 41 s
Bit rate : 49 b/s
Frame rate : 0.197 FPS
Count of elements : 469
Stream size : 14.4 KiB (0%)
Title : Espa?ol (Espa?a)
Language : Spanish
Default : No
Forced : No

Text #12
ID : 15
Format : UTF-8
Codec ID : S_TEXT/UTF8
Codec ID/Info : UTF-8 Plain Text
Duration : 39 min 44 s
Bit rate : 45 b/s
Frame rate : 0.168 FPS
Count of elements : 400
Stream size : 13.3 KiB (0%)
Title : Suomi
Language : Finnish
Default : No
Forced : No

Text #13
ID : 16
Format : UTF-8
Codec ID : S_TEXT/UTF8
Codec ID/Info : UTF-8 Plain Text
Duration : 39 min 43 s
Bit rate : 52 b/s
Frame rate : 0.202 FPS
Count of elements : 481
Stream size : 15.3 KiB (0%)
Title : Suomi (Israel)
Language : Finnish
Default : No
Forced : No

Text #14
ID : 17
Format : UTF-8
Codec ID : S_TEXT/UTF8
Codec ID/Info : UTF-8 Plain Text
Duration : 35 min 43 s
Bit rate : 87 b/s
Frame rate : 0.282 FPS
Count of elements : 604
Stream size : 23.0 KiB (0%)
Title : Fran?ais
Language : French
Default : No
Forced : No

Text #15
ID : 18
Format : UTF-8
Codec ID : S_TEXT/UTF8
Codec ID/Info : UTF-8 Plain Text
Duration : 35 min 44 s
Bit rate : 91 b/s
Frame rate : 0.220 FPS
Count of elements : 472
Stream size : 23.9 KiB (0%)
Title : ?????
Language : Hebrew
Default : No
Forced : No

Text #16
ID : 19
Format : UTF-8
Codec ID : S_TEXT/UTF8
Codec ID/Info : UTF-8 Plain Text
Duration : 39 min 44 s
Bit rate : 47 b/s
Frame rate : 0.193 FPS
Count of elements : 461
Stream size : 13.7 KiB (0%)
Title : Hrvatski
Language : Croatian
Default : No
Forced : No

Text #17
ID : 20
Format : UTF-8
Codec ID : S_TEXT/UTF8
Codec ID/Info : UTF-8 Plain Text
Duration : 39 min 43 s
Bit rate : 48 b/s
Frame rate : 0.206 FPS
Count of elements : 490
Stream size : 14.2 KiB (0%)
Title : Magyar
Language : Hungarian
Default : No
Forced : No

Text #18
ID : 21
Format : UTF-8
Codec ID : S_TEXT/UTF8
Codec ID/Info : UTF-8 Plain Text
Duration : 39 min 43 s
Bit rate : 47 b/s
Frame rate : 0.207 FPS
Count of elements : 494
Stream size : 13.9 KiB (0%)
Title : Bahasa Indonesia
Language : Indonesian
Default : No
Forced : No

Text #19
ID : 22
Format : UTF-8
Codec ID : S_TEXT/UTF8
Codec ID/Info : UTF-8 Plain Text
Duration : 35 min 42 s
Bit rate : 63 b/s
Frame rate : 0.193 FPS
Count of elements : 414
Stream size : 16.7 KiB (0%)
Title : Italiano
Language : Italian
Default : No
Forced : No

Text #20
ID : 23
Format : UTF-8
Codec ID : S_TEXT/UTF8
Codec ID/Info : UTF-8 Plain Text
Duration : 39 min 44 s
Bit rate : 42 b/s
Frame rate : 0.206 FPS
Count of elements : 492
Stream size : 12.4 KiB (0%)
Title : 日本語
Language : Japanese
Default : No
Forced : No

Text #21
ID : 24
Format : UTF-8
Codec ID : S_TEXT/UTF8
Codec ID/Info : UTF-8 Plain Text
Duration : 39 min 44 s
Bit rate : 61 b/s
Frame rate : 0.210 FPS
Count of elements : 501
Stream size : 17.8 KiB (0%)
Title : ???
Language : Korean
Default : No
Forced : No

Text #22
ID : 25
Format : UTF-8
Codec ID : S_TEXT/UTF8
Codec ID/Info : UTF-8 Plain Text
Duration : 39 min 44 s
Bit rate : 47 b/s
Frame rate : 0.204 FPS
Count of elements : 486
Stream size : 13.9 KiB (0%)
Title : Bahasa Malaysia
Language : Malay
Default : No
Forced : No

Text #23
ID : 26
Format : UTF-8
Codec ID : S_TEXT/UTF8
Codec ID/Info : UTF-8 Plain Text
Duration : 39 min 43 s
Bit rate : 48 b/s
Frame rate : 0.155 FPS
Count of elements : 369
Stream size : 14.1 KiB (0%)
Title : Norsk Bokm?l
Language : Norwegian Bokmal
Default : No
Forced : No

Text #24
ID : 27
Format : UTF-8
Codec ID : S_TEXT/UTF8
Codec ID/Info : UTF-8 Plain Text
Duration : 39 min 43 s
Bit rate : 47 b/s
Frame rate : 0.172 FPS
Count of elements : 411
Stream size : 13.8 KiB (0%)
Title : Nederlands
Language : Dutch
Default : No
Forced : No

Text #25
ID : 28
Format : UTF-8
Codec ID : S_TEXT/UTF8
Codec ID/Info : UTF-8 Plain Text
Duration : 39 min 44 s
Bit rate : 46 b/s
Frame rate : 0.197 FPS
Count of elements : 469
Stream size : 13.5 KiB (0%)
Title : Polski
Language : Polish
Default : No
Forced : No

Text #26
ID : 29
Format : UTF-8
Codec ID : S_TEXT/UTF8
Codec ID/Info : UTF-8 Plain Text
Duration : 39 min 44 s
Bit rate : 49 b/s
Frame rate : 0.199 FPS
Count of elements : 475
Stream size : 14.5 KiB (0%)
Title : Português
Language : Portuguese
Default : No
Forced : No

Text #27
ID : 30
Format : UTF-8
Codec ID : S_TEXT/UTF8
Codec ID/Info : UTF-8 Plain Text
Duration : 36 min 16 s
Bit rate : 56 b/s
Frame rate : 0.224 FPS
Count of elements : 488
Stream size : 15.1 KiB (0%)
Title : Português (Brasil)
Language : Portuguese
Default : No
Forced : No

Text #28
ID : 31
Format : UTF-8
Codec ID : S_TEXT/UTF8
Codec ID/Info : UTF-8 Plain Text
Duration : 39 min 44 s
Bit rate : 48 b/s
Frame rate : 0.192 FPS
Count of elements : 458
Stream size : 14.2 KiB (0%)
Title : Roman?
Language : Romanian
Default : No
Forced : No

Text #29
ID : 32
Format : UTF-8
Codec ID : S_TEXT/UTF8
Codec ID/Info : UTF-8 Plain Text
Duration : 35 min 46 s
Bit rate : 88 b/s
Frame rate : 0.220 FPS
Count of elements : 472
Stream size : 23.2 KiB (0%)
Title : Русский
Language : Russian
Default : No
Forced : No

Text #30
ID : 33
Format : UTF-8
Codec ID : S_TEXT/UTF8
Codec ID/Info : UTF-8 Plain Text
Duration : 39 min 44 s
Bit rate : 48 b/s
Frame rate : 0.183 FPS
Count of elements : 436
Stream size : 14.1 KiB (0%)
Title : Svenska
Language : Swedish
Default : No
Forced : No

Text #31
ID : 34
Format : UTF-8
Codec ID : S_TEXT/UTF8
Codec ID/Info : UTF-8 Plain Text
Duration : 39 min 44 s
Bit rate : 126 b/s
Frame rate : 0.208 FPS
Count of elements : 495
Stream size : 36.8 KiB (0%)
Title : ???
Language : Thai
Default : No
Forced : No

Text #32
ID : 35
Format : UTF-8
Codec ID : S_TEXT/UTF8
Codec ID/Info : UTF-8 Plain Text
Duration : 39 min 43 s
Bit rate : 80 b/s
Frame rate : 0.206 FPS
Count of elements : 490
Stream size : 23.5 KiB (0%)
Title : Укра?нська
Language : Ukrainian
Default : No
Forced : No

Text #33
ID : 36
Format : UTF-8
Codec ID : S_TEXT/UTF8
Codec ID/Info : UTF-8 Plain Text
Duration : 35 min 44 s
Bit rate : 71 b/s
Frame rate : 0.221 FPS
Count of elements : 474
Stream size : 18.7 KiB (0%)
Title : Ti?ng Vi?t
Language : Vietnamese
Default : No
Forced : No

Menu
00:00:00.000 : en:Part 01
00:39:14.000 : en:Credits


点击图片可查看大图

软字幕无法在截图上展现,HDR版本/杜比视界版本截图会出现颜色异常,请使用支持的设备播放!



1 个附件 售价 大小 下载 时间

Thank.You.Next.S01.2024.2160p.NF.WEB-DL.DDP5.1.H.265-LelveTV[1LOU.ME].torrent 0 金币 80.73K 154 次 4天前

#1楼
发帖时间:2024-05-16 08:53:40   |   回复数:0
游客组