BILL36
隐世仙人♂

[2024] [韩国] [剧情] [WEB-4K] 逆贫大叔[HDR/杜比视界双版本][第01-05集][简繁英字幕].2024.2160p.DSNP.WEB-DL.DDP5.1.DV.HDR.H.265-Lel

-->

完整标题:逆贫大叔[HDR/杜比视界双版本][第01-05集][简繁英字幕].2024.2160p.DSNP.WEB-DL.DDP5.1.DV.HDR.H.265-LelveTV 19.18GB



◎标  题 逆贫大叔
◎译  名 三植叔叔 / 三食叔叔 / Uncle Samsik
◎片  名 삼식이 삼촌
◎年  代 2024
◎产  地 韩国
◎类  别 剧情
◎语  言 韩语
◎IMDb链接 https://www.imdb.com/title/tt21936640/
◎豆瓣链接 https://movie.douban.com/subject/36074913/
◎导  演 申渊植 Yeon-shick Shin
◎编  剧 申渊植 Yeon-shick Shin
◎演  员 宋康昊 Kang-ho Song
      卞约汉 Yo-han Byun
      李奎炯 Kyu-hyung Lee
      秦基周 Ki-joo Jin
      徐现宇 Seo Hyeon-woo
      吴光禄 Kwang-rok Oh
      吴承勋 Oh Seung-Hoon
      金敏载 Kim Min-jae
      卢在元 Jae-won Roh
      柳泰浩 Tae-ho Ryu
      李玄均 Hyeon-gyoon Lee
      金律豪 Kim Yool-Ho
      李光熙 Kwang-hee Lee
      罗贤宇 Na Hyun Woo
      李浩石 Ho-suk Lee

◎简  介
    该剧以20世纪60年代、韩国动荡不安时期为背景,人称“三植叔叔”的朴斗七 (宋康昊 饰) 愿景国家人人都一日三餐吃得饱。他遇上雄心壮志的理想主义者金产 (卞约汉 饰),两人怎样逆转国家的命运?

部分资源为软字幕,移动端推荐播放器:MxPlayer,nPlayer,infuse ,其他播放器请自行尝试。

部分资源为软字幕,电脑端推荐播放器:PotPlayer,完美解码,KMPLAYER,其他播放器请自行尝试。

下载端推荐纯BT下载软件:qBittorrent,Bitcomet,uTorrent ,其他下载软件请自行尝试。不支持吸血迅雷。

##### MediaInfo ######
General
Unique ID : 213879904588592918356314170354539321494 (0xA0E7C5724707679E6DEAE1E826165896)
Complete name : Uncle.Samsik.S01E01.2024.2160p.DSNP.WEB-DL.DDP5.1.DV.HDR.H.265-LelveTV.mkv
Duration : 43 min 2 s
Overall bit rate : 12.8 Mb/s

Video
ID : 1
Format : HEVC
Format/Info : High Efficiency Video Coding
Format profile : Main 10@L5@High
HDR format : Dolby Vision, Version 1.0, dvhe.08.06, BL+RPU, HDR10 compatible / SMPTE ST 2086, HDR10 compatible
Codec ID : V_MPEGH/ISO/HEVC
Duration : 43 min 2 s
Bit rate : 12.3 Mb/s
Width : 3 840 pixels
Height : 2 160 pixels
Display aspect ratio : 16:9
Frame rate mode : Constant
Frame rate : 23.976 (24000/1001) FPS
Color space : YUV
Chroma subsampling : 4:2:0
Bit depth : 10 bits
Bits/(Pixel*Frame) : 0.062
Stream size : 3.69 GiB (96%)
Default : Yes
Forced : No
Color range : Limited
Color primaries : BT.2020
Transfer characteristics : PQ
Matrix coefficients : BT.2020 non-constant
Mastering display color primaries : BT.2020
Mastering display luminance : min: 0.0001 cd/m2, max: 1000 cd/m2

Audio #1
ID : 2
Format : E-AC-3
Format/Info : Enhanced AC-3
Commercial name : Dolby Digital Plus
Codec ID : A_EAC3
Duration : 43 min 2 s
Bit rate mode : Constant
Bit rate : 256 kb/s
Channel(s) : 6 channels
Channel layout : L R C LFE Ls Rs
Sampling rate : 48.0 kHz
Frame rate : 31.250 FPS (1536 SPF)
Compression mode : Lossy
Stream size : 78.8 MiB (2%)
Title : ??? [Dolby Digital Plus 5.1]
Language : Korean
Service kind : Complete Main
Default : Yes
Forced : No

Audio #2
ID : 3
Format : E-AC-3
Format/Info : Enhanced AC-3
Commercial name : Dolby Digital Plus
Codec ID : A_EAC3
Duration : 43 min 2 s
Bit rate mode : Constant
Bit rate : 256 kb/s
Channel(s) : 6 channels
Channel layout : L R C LFE Ls Rs
Sampling rate : 48.0 kHz
Frame rate : 31.250 FPS (1536 SPF)
Compression mode : Lossy
Stream size : 78.8 MiB (2%)
Title : English [Dolby Digital Plus 5.1]
Language : English
Service kind : Complete Main
Default : No
Forced : No

Text #1
ID : 4
Format : UTF-8
Codec ID : S_TEXT/UTF8
Codec ID/Info : UTF-8 Plain Text
Duration : 42 min 55 s
Bit rate : 93 b/s
Frame rate : 0.310 FPS
Count of elements : 798
Stream size : 29.3 KiB (0%)
Title : ??? [SDH]
Language : Korean
Default : No
Forced : No

Text #2
ID : 5
Format : UTF-8
Codec ID : S_TEXT/UTF8
Codec ID/Info : UTF-8 Plain Text
Duration : 43 min 0 s
Bit rate : 63 b/s
Frame rate : 0.255 FPS
Count of elements : 659
Stream size : 20.1 KiB (0%)
Title : 中文(简体)
Language : Chinese
Default : Yes
Forced : No

Text #3
ID : 6
Format : UTF-8
Codec ID : S_TEXT/UTF8
Codec ID/Info : UTF-8 Plain Text
Duration : 43 min 0 s
Bit rate : 63 b/s
Frame rate : 0.255 FPS
Count of elements : 659
Stream size : 20.1 KiB (0%)
Title : 中文 (繁體)
Language : Chinese
Default : No
Forced : No

Text #4
ID : 7
Format : UTF-8
Codec ID : S_TEXT/UTF8
Codec ID/Info : UTF-8 Plain Text
Duration : 43 min 0 s
Bit rate : 63 b/s
Frame rate : 0.255 FPS
Count of elements : 658
Stream size : 20.1 KiB (0%)
Title : ?e?tina
Language : Czech
Default : No
Forced : No

Text #5
ID : 8
Format : UTF-8
Codec ID : S_TEXT/UTF8
Codec ID/Info : UTF-8 Plain Text
Duration : 42 min 55 s
Bit rate : 64 b/s
Frame rate : 0.258 FPS
Count of elements : 664
Stream size : 20.3 KiB (0%)
Title : Dansk
Language : Danish
Default : No
Forced : No

Text #6
ID : 9
Format : UTF-8
Codec ID : S_TEXT/UTF8
Codec ID/Info : UTF-8 Plain Text
Duration : 43 min 0 s
Bit rate : 61 b/s
Frame rate : 0.257 FPS
Count of elements : 663
Stream size : 19.5 KiB (0%)
Title : Deutsch
Language : German
Default : No
Forced : No

Text #7
ID : 10
Format : UTF-8
Codec ID : S_TEXT/UTF8
Codec ID/Info : UTF-8 Plain Text
Duration : 43 min 0 s
Bit rate : 104 b/s
Frame rate : 0.242 FPS
Count of elements : 625
Stream size : 33.0 KiB (0%)
Title : Ελληνικ?
Language : Greek
Default : No
Forced : No

Text #8
ID : 11
Format : UTF-8
Codec ID : S_TEXT/UTF8
Codec ID/Info : UTF-8 Plain Text
Duration : 41 min 44 s
Bit rate : 82 b/s
Frame rate : 0.290 FPS
Count of elements : 727
Stream size : 25.2 KiB (0%)
Title : English [SDH]
Language : English
Default : No
Forced : No

Text #9
ID : 12
Format : UTF-8
Codec ID : S_TEXT/UTF8
Codec ID/Info : UTF-8 Plain Text
Duration : 43 min 0 s
Bit rate : 61 b/s
Frame rate : 0.255 FPS
Count of elements : 659
Stream size : 19.5 KiB (0%)
Title : Espa?ol (Latinoamérica)
Language : Spanish
Default : No
Forced : No

Text #10
ID : 13
Format : UTF-8
Codec ID : S_TEXT/UTF8
Codec ID/Info : UTF-8 Plain Text
Duration : 43 min 0 s
Bit rate : 63 b/s
Frame rate : 0.255 FPS
Count of elements : 657
Stream size : 19.9 KiB (0%)
Title : Espa?ol (Espa?a)
Language : Spanish
Default : No
Forced : No

Text #11
ID : 14
Format : UTF-8
Codec ID : S_TEXT/UTF8
Codec ID/Info : UTF-8 Plain Text
Duration : 43 min 0 s
Bit rate : 65 b/s
Frame rate : 0.257 FPS
Count of elements : 663
Stream size : 20.6 KiB (0%)
Title : Suomi
Language : Finnish
Default : No
Forced : No

Text #12
ID : 15
Format : UTF-8
Codec ID : S_TEXT/UTF8
Codec ID/Info : UTF-8 Plain Text
Duration : 43 min 0 s
Bit rate : 69 b/s
Frame rate : 0.255 FPS
Count of elements : 657
Stream size : 21.9 KiB (0%)
Title : Fran?ais (France)
Language : French
Default : No
Forced : No

Text #13
ID : 16
Format : UTF-8
Codec ID : S_TEXT/UTF8
Codec ID/Info : UTF-8 Plain Text
Duration : 43 min 0 s
Bit rate : 64 b/s
Frame rate : 0.254 FPS
Count of elements : 656
Stream size : 20.2 KiB (0%)
Title : Magyar
Language : Hungarian
Default : No
Forced : No

Text #14
ID : 17
Format : UTF-8
Codec ID : S_TEXT/UTF8
Codec ID/Info : UTF-8 Plain Text
Duration : 43 min 0 s
Bit rate : 62 b/s
Frame rate : 0.257 FPS
Count of elements : 664
Stream size : 19.6 KiB (0%)
Title : Italiano
Language : Italian
Default : No
Forced : No

Text #15
ID : 18
Format : UTF-8
Codec ID : S_TEXT/UTF8
Codec ID/Info : UTF-8 Plain Text
Duration : 43 min 0 s
Bit rate : 59 b/s
Frame rate : 0.247 FPS
Count of elements : 637
Stream size : 18.7 KiB (0%)
Title : 日本語
Language : Japanese
Default : No
Forced : No

Text #16
ID : 19
Format : UTF-8
Codec ID : S_TEXT/UTF8
Codec ID/Info : UTF-8 Plain Text
Duration : 43 min 0 s
Bit rate : 63 b/s
Frame rate : 0.256 FPS
Count of elements : 660
Stream size : 20.1 KiB (0%)
Title : Nederlands
Language : Dutch
Default : No
Forced : No

Text #17
ID : 20
Format : UTF-8
Codec ID : S_TEXT/UTF8
Codec ID/Info : UTF-8 Plain Text
Duration : 43 min 0 s
Bit rate : 62 b/s
Frame rate : 0.254 FPS
Count of elements : 655
Stream size : 19.5 KiB (0%)
Title : Norsk
Language : Norwegian
Default : No
Forced : No

Text #18
ID : 21
Format : UTF-8
Codec ID : S_TEXT/UTF8
Codec ID/Info : UTF-8 Plain Text
Duration : 43 min 0 s
Bit rate : 58 b/s
Frame rate : 0.257 FPS
Count of elements : 664
Stream size : 18.4 KiB (0%)
Title : Polski
Language : Polish
Default : No
Forced : No

Text #19
ID : 22
Format : UTF-8
Codec ID : S_TEXT/UTF8
Codec ID/Info : UTF-8 Plain Text
Duration : 43 min 0 s
Bit rate : 59 b/s
Frame rate : 0.254 FPS
Count of elements : 655
Stream size : 18.8 KiB (0%)
Title : Português (Brasil)
Language : Portuguese
Default : No
Forced : No

Text #20
ID : 23
Format : UTF-8
Codec ID : S_TEXT/UTF8
Codec ID/Info : UTF-8 Plain Text
Duration : 43 min 0 s
Bit rate : 64 b/s
Frame rate : 0.257 FPS
Count of elements : 664
Stream size : 20.3 KiB (0%)
Title : Português (Portugal)
Language : Portuguese
Default : No
Forced : No

Text #21
ID : 24
Format : UTF-8
Codec ID : S_TEXT/UTF8
Codec ID/Info : UTF-8 Plain Text
Duration : 43 min 0 s
Bit rate : 68 b/s
Frame rate : 0.254 FPS
Count of elements : 656
Stream size : 21.6 KiB (0%)
Title : Roman?
Language : Romanian
Default : No
Forced : No

Text #22
ID : 25
Format : UTF-8
Codec ID : S_TEXT/UTF8
Codec ID/Info : UTF-8 Plain Text
Duration : 41 min 38 s
Bit rate : 65 b/s
Frame rate : 0.262 FPS
Count of elements : 655
Stream size : 19.8 KiB (0%)
Title : Sloven?ina
Language : Slovak
Default : No
Forced : No

Text #23
ID : 26
Format : UTF-8
Codec ID : S_TEXT/UTF8
Codec ID/Info : UTF-8 Plain Text
Duration : 43 min 0 s
Bit rate : 59 b/s
Frame rate : 0.254 FPS
Count of elements : 656
Stream size : 18.6 KiB (0%)
Title : Svenska
Language : Swedish
Default : No
Forced : No

Text #24
ID : 27
Format : UTF-8
Codec ID : S_TEXT/UTF8
Codec ID/Info : UTF-8 Plain Text
Duration : 43 min 0 s
Bit rate : 65 b/s
Frame rate : 0.254 FPS
Count of elements : 655
Stream size : 20.7 KiB (0%)
Title : Türk?e
Language : Turkish
Default : No
Forced : No

Menu
00:02:28.524 : en:Intro
00:03:28.542 : en:Scene 1
00:42:10.531 : en:Credits


点击图片可查看大图

软字幕无法在截图上展现,HDR版本/杜比视界版本截图会出现颜色异常,请使用支持的设备播放!



1 个附件 售价 大小 下载 时间

2024.2160p.DSNP.WEB-DL.DDP5.1.DV.HDR.H.265-LelveTV[1LOU.ME].torrent 0 金币 50.90K 350 次 4天前

#1楼
发帖时间:2024-05-16 08:54:43   |   回复数:0
游客组